Аватар: Путь воды

Лицензия

В те дни

1 сезон

скачать смотреть онлайн John Wick Chapter 4

MVO

Крик 6

Дубляж

13 клиническая

3 сезон

Восстание зловещих мертвецов

Дубляж

Одни из нас

Дубляж

Dead Island 2 Gold

Gold

Deluxe RUS

Deluxe RUS

pack

Рекомендуем

ВАЖНО

ВАЖНО

30

Repack

The Lord of the Rings: Gollum

Лицензия

jed

RePack

nioh2

RePack

RDR2

RePack

NEED FOR SPEED™ PAYBACK

RePack

скачать торрент

Кинопоиск HD

Острые козырьки 6 сезон

6 сезон

FAR CRY 6

RePack

скачать торрент

Лицензия

скачать торрент

MVO

1

1 сезон

скачать торрент

1 сезон

скачать торрент

Лицензия

  

Гости из прошлого / Сезон: 2 / Серии: 1-15 из 15 (Мария Кравченко (II) [2022, Комедия, WEB-DLRip-AVC]

Гости из прошлого через торрент pb.wtf

Раздают: 4 [ 161 KB/s ]
Размер: 4.41 GB | Добавлен: 5 мес. 25 д. назад | Торрент скачан:206 раз
Смотреть онлайн | Скачать | Поддержите нас   

21-11-2022 20:44 Гости из прошлого Скачать торрент  

Гости из прошлого
Год выпуска: 2022
Страна: Россия
Выпущено: Кинокомпания «Небо» по заказу телеканала СТС
Жанр: Комедия
Продолжительность: ~ 00:20:00 серия
Субтитры: отсутствуют

Режиссер: Мария Кравченко (II)



В ролях: Юрий Стоянов, Алексей Макаров, Михаил Трухин, Анна Невская, Евгений Михеев, Анастасия Акатова, Евгений Егоров, Вероника Сафонова, Сергей Дьяков, Зарина Мухитдинова, Илья Феофилактов, Денис Нурулин, Мариэтта Цигаль-Полищук

Описание: Советский изобретатель Матвей Пиотровский вместе с фарцовщиком Жориком, двумя версиями внука из разных времён и семьёй Даниловых из 2020-го хочет выбраться из пространственно-временной дыры. Тщетные попытки вернуться домой приводят путешественников то к Александру Пушкину и будущему императору, цесаревичу Александру Николаевичу, то во времена языческой Руси, то в параллельные реальности. Герои должны разгадать тайну временной аномалии и сделать непростой выбор, который определит судьбу их мира.

Качество: WEB-DLRip-AVC
Формат: MKV

Видео: MPEG-4 AVC, ~ 1600 Кбит/с, 1024x576, 25 кадр/с
Аудио: 48.0 kHz, AC3 Dolby Digital, 2/0 (L,R) ch, ~ 192 kbps
скриншот  скриншот  скриншот  скриншот  скриншот  скриншот  

General
Unique ID : 208825126024237141057623242435262865264 (0x9D1A419F2C87ADD7BBE00EE68B2EDF70)
Complete name : F:\Гости из прошлого.S02.(2022).WEB-DLRip.(AVC).Files-x\01.Гости из прошлого.S02.(2022).WEB-DLRip.(AVC).by.Серый1779.Files-x.mkv
Format : Matroska
Format version : Version 2
File size : 247 MiB
Duration : 19 min 13 s
Overall bit rate : 1 793 kb/s
Encoded date : UTC 2022-11-21 16:52:57
Writing application : mkvmerge v7.8.0 ('River Man') 32bit built on Apr 3 2015 12:11:22
Writing library : libebml v1.3.1 + libmatroska v1.4.2

Video
ID : 1
Format : AVC
Format/Info : Advanced Video Codec
Format profile : [email protected]
Format settings : CABAC / 9 Ref Frames
Format settings, CABAC : Yes
Format settings, RefFrames : 9 frames
Codec ID : V_MPEG4/ISO/AVC
Duration : 19 min 13 s
Bit rate : 1 600 kb/s
Width : 1 024 pixels
Height : 576 pixels
Display aspect ratio : 16:9
Frame rate mode : Constant
Frame rate : 25.000 FPS
Color space : YUV
Chroma subsampling : 4:2:0
Bit depth : 8 bits
Scan type : Progressive
Bits/(Pixel*Frame) : 0.109
Stream size : 215 MiB (87%)
Writing library : x264 core 146 r2538 121396c
Encoding settings : cabac=1 / ref=9 / deblock=1:-2:-1 / analyse=0x3:0x133 / me=umh / subme=9 / psy=1 / psy_rd=1.00:0.15 / mixed_ref=1 / me_range=32 / chroma_me=1 / trellis=2 / 8x8dct=1 / cqm=0 / deadzone=21,11 / fast_pskip=0 / chroma_qp_offset=-3 / threads=18 / lookahead_threads=3 / sliced_threads=0 / nr=0 / decimate=1 / interlaced=0 / bluray_compat=0 / constrained_intra=0 / bframes=9 / b_pyramid=2 / b_adapt=2 / b_bias=0 / direct=1 / weightb=1 / open_gop=0 / weightp=2 / keyint=250 / keyint_min=25 / scenecut=40 / intra_refresh=0 / rc=2pass / mbtree=0 / bitrate=1600 / ratetol=1.0 / qcomp=0.60 / qpmin=0 / qpmax=69 / qpstep=4 / cplxblur=20.0 / qblur=0.5 / ip_ratio=1.40 / pb_ratio=1.30 / aq=2:1.00
Default : Yes
Forced : No
Color range : Limited
Color primaries : BT.709
Transfer characteristics : BT.709
Matrix coefficients : BT.709

Audio
ID : 2
Format : AC-3
Format/Info : Audio Coding 3
Format settings, Endianness : Big
Codec ID : A_AC3
Duration : 19 min 13 s
Bit rate mode : Constant
Bit rate : 192 kb/s
Channel(s) : 2 channels
Channel positions : Front: L R
Sampling rate : 48.0 kHz
Frame rate : 31.250 FPS (1536 SPF)
Bit depth : 16 bits
Compression mode : Lossy
Stream size : 26.4 MiB (11%)
Service kind : Complete Main
Default : Yes
Forced : No

Когда раздача ведётся путём добавления новых серий, при каждом добавлении создётся новый торрент. Чтобы начать докачку новой серии, пользователям необходимо сделать следующее:
(1) остановить скачивание,
(2) удалить старый торрент у себя из клиента (старые серии удалять не надо),
(3) скачать новый торрент и запустить его у себя в клиенте вместо старого, при этом указать клиенту путь в старую папку, куда и должно происходить скачивание новых серий.
Ваш клиент при этом должен произвести хеширование (проверку) старой папки (если не производит сам - помогите ему сделать это), и будет докачивать только те серии, которых у вас ещё нет. Старые серии при этом не удаляются, а продолжают раздаваться!
Eсли вы уже удалили старые серии, то предотвратить повторную закачку старых серий можно, отжав галочку в соответсвующих местах при запуске нового торрента. По возможности, желательно не удалять старые серии как можно дольше, чтобы релизёр не столько продолжал раздавать старые серии, а смог сконцентрироваться на новых.





Скачать Гости из прошлого через торрент https://i120.fastpic.org/big/2022/1121/55/1b197e0f3f25918174b7a6df917b7d55.jpg Скачать, смотреть онлайн Гости из прошлого бесплатно в хорошем качестве Описание: Советский изобретатель Матвей Пиотровский вместе с фарцовщиком Жориком, двумя ми внука из разных времён и семьёй Даниловых ... 9.5 10 19
Торрент: Зарегистрирован [2022-12-13 14:34] · скачан: 206 раз
Статус: √ проверено
Размер: 4.41 GB
Как cкачать? Как скачать Гости из прошлого через торрент | UTorrent

% Раздел Тема Автор DL S | L
Наши сериалы [ 9.81 GB ] Гости из прошлого / Сезон: 2 / Серии: 1-15 из 15 | | 1080p bober100 Скачать
3 | 0
Наши сериалы [ 9.37 GB ] Гости из прошлого / Сезон: 1 / Серии: 1-17 из 17 | | HDTV 1080i bober100 Скачать
1 | 0
Наши сериалы [ 10.54 GB ] Гости из прошлого / Сезон: 1 / Серии: 1-17 из 17 | | 1080p bober100 Скачать
3 | 0
Наши сериалы [ 6.26 GB ] Гости из прошлого / Сезон: 1 / Серии: 1-17 из 17 | | 720p bober100 Скачать
1 | 0
Наши сериалы [ 5.14 GB ] Гости из прошлого / Сезон: 1 / Серии: 1-17 из 17 | | DLRip-AVC bober100 Скачать
1 | 0
Наши сериалы [ 4.98 GB ] Гости из прошлого / Сезон: 1 / Серии: 1-17 из 17 | | DLRip bober100 Скачать
1 | 0



Последний раз редактировалось: bober100 (2022-12-21 17:06), всего редактировалось 11 раз(а)

28-11-2019 20:33  


Отключить вcю реклaмy на сайте, в т.ч. и в плеере онлайн просмотра!

22-11-2022 21:17 Гости из прошлого Скачать торрент  

спасибо...думал что уже не будет продолжения



07-12-2022 19:07 Гости из прошлого Скачать торрент  

продолжение дрянь вообще... бездарный сценарий, отвратительная игра актёров, нистремнейшие диалоги и образы.



18-12-2022 14:17 Гости из прошлого Скачать торрент  

поправьте раздачу, вместо четвертой серии тут первая



21-12-2022 21:47 Гости из прошлого Скачать торрент  

Гости из прошлого / Сезон: 2 / Серии: 1-15 из 15 (Мария Кравченко (II) [2022, Комедия, WEB-DLRip-AVC]

поправьте раздачу, вместо 4-й серии тут первая из второго сезона повторяется



    Дорогой пользователь! Огромная просьба, поблагодарите релизера, оцените раздачу и оставьте свои комментарий, если Вы скачали Гости из прошлого через торрент бесплатно!!
    Комментировать посты могут только пользователи прошедшие не сложную регистрацию
    Показать сообщения:    


    Гости из прошлого через торрент
    Скачать бесплатно Гости из прошлого
    Гости из прошлого скачать торрент
    Гости из прошлого смотреть онлайн
    Cкачать фильм Гости из прошлого бесплатно
    Гости из прошлого скачать торрент в хорошем качестве
    Гости из прошлого смотреть онлайн бесплатно в хорошем качестве
    Вы не можете начинать темы
    Вы не можете отвечать на сообщения
    Вы не можете редактировать свои сообщения
    Вы не можете удалять свои сообщения
    Вы не можете голосовать в опросах
    Вы не можете прикреплять файлы к сообщениям
    Вы можете скачивать файлы