Аватар: Путь воды

Дубляж

смотреть онлайн / скачать торрент Синий Жук

Дубляж

смотреть онлайн / скачать торрент Кентавр

Лицензия

Активация Mortal Kombat 1

Premium

Активация Lies of P

Deluxe

Активация Resident evil 4 remake+DLC Separate Ways

Игра+DLC

смотреть онлайн / скачать торрент Два, три, демон, приди!

MVO

смотреть онлайн / скачать торрент Форсаж 10

Лицензия

смотреть онлайн / скачать торрент Ведьмак / The Witcher / Сезон: 3

3 сезон

смотреть онлайн / скачать торрент Стражи Галактики. Часть 3

Дубляж

Рекомендуем

Рекомендуем

ВАЖНО

ВАЖНО

30

Лицензия

ARMORED CORE™ VI FIRES OF RUBICON™

Steam-Rip

jed

RePack

PAYDAY 3

Пиратка

RDR2

RePack

Hogwarts Legacy

Steam-Rip

смотреть онлайн / скачать торрент Захваченный

Невафильм

смотреть онлайн / скачать торрент Острые козырьки 6 сезон

6 сезон

FAR CRY 6

RePack

смотреть онлайн / скачать торрент Доктор Стрэндж

Лицензия

скачать торрент Dead Island™ 2

EGS-Rip

скачать торрент The Quarry

Steam-Rip

смотреть онлайн / скачать торрент Мэверик

Лицензия

  

Chasing the Big Ones 26 / В погоне за большими 26 (West Coast) [2005 г., All Sex, Anal, Interracial, Big Dicks, DVD9]

Chasing the Big Ones 26 через торрент pb.wtf

Размер: 6.91 GB | Добавлен: 3 мес. 30 д. назад | Торрент скачан:37 раз
Atomic Heart+Annihilation Instinct активация

2023-05-26 06:42 Chasing the Big Ones 26 Скачать торрент  

Chasing the Big Ones 26 / В погоне за большими 26

Год выпуска: 2005
Страна: США
Жанр: All Sex, Anal, Interracial, Big Dicks
Продолжительность: 01:52:36

Студия: West Coast

В ролях: Eva, Erin, Rita, Brittney, Celine

Описание: The biggest dicks in porn! ...Maybe the world! Girls who love big dicks!

Качество: DVD9
Формат: DVD Video
Видео кодек: MPEG2
Аудио кодек: AC3
Видео: 720x480, MPEG 2, 8113 Кбит/сек
Аудио: Английский, AC3, 2 ch, 224 Кбит/сек
Видео
Идентификатор : 224 (0xE0)
Формат : MPEG Video
Версия формата : Version 2
Профиль формата : Main@Main
Настройки формата : CustomMatrix / BVOP
Параметр BVOP формата : Да
Параметр матрицы формата : Выборочная
Параметр GOP формата : M=3, N=15
Структура изображения : Frame
Продолжительность : 18 м. 26 с.
Вид битрейта : Переменный
Битрейт : 7383 Кбит/сек
Максимальный битрейт : 9000 Кбит/сек
Ширина : 720 пикселей
Высота : 480 пикселей
Соотношение сторон : 4:3
Частота кадров : 29,970 (30000/1001) кадров/сек
Стандарт вещания : NTSC
Цветовое пространство : YUV
Субдискретизация насыщенности : 4:2:0
Битовая глубина : 8 бит
Тип развёртки : Чересстрочная
Порядок развёртки : Верхнее поле первое
Метод сжатия : С потерями
Бит/(Пиксели*Кадры) : 0.713
Временной код первого кадра : 00:03:15:12
Оригинал временного кода : Group of pictures header
GOP, открыто/закрыто : Закрыто
Размер потока : 974 Мбайт (95%)

Аудио
Идентификатор : 189 (0xBD)-128 (0x80)
Формат : AC-3
Формат/Информация : Audio Coding 3
Коммерческое название : Dolby Digital
Режим смешивания : DVD-Video
Продолжительность : 18 м. 26 с.
Вид битрейта : Постоянный
Битрейт : 224 Кбит/сек
Каналы : 2 канала
ChannelLayout : L R
Частота : 48,0 КГц
Частота кадров : 31,250 кадров/сек (1536 SPF)
Метод сжатия : С потерями
Размер потока : 29,6 Мбайт (3%)
ServiceKind/String : Complete Main






pack Скачать Chasing the Big Ones 26 через торрент https://i121.fastpic.org/big/2023/0526/3c/72754900eef24ea8616679ecb207e93c.jpg Скачать, смотреть онлайн Chasing the Big Ones 26 бесплатно в хорошем качестве Описание: The biggest dicks in porn! ...Maybe the world! Girls who love big ... 10 10 4
Info! Золотая раздача, скачанное не засчитывается.
Торрент: Зарегистрирован [2023-05-26 06:42] · скачан: 37 раз
Статус: √ проверено
Размер: 6.91 GB
Как cкачать? Как скачать Chasing the Big Ones 26 через торрент | UTorrent | Поделиться в телеграм

28-11-2019 20:33  


Отключить вcю реклaмy на сайте, в т.ч. и в плеере онлайн просмотра!

    Дорогой пользователь! Огромная просьба, поблагодарите релизера, оцените раздачу и оставьте свои комментарий, если Вы скачали Chasing the Big Ones 26 через торрент бесплатно!!
    Комментировать посты могут только пользователи прошедшие не сложную регистрацию
    Показать сообщения:    


    Chasing the Big Ones 26 через торрент
    Скачать бесплатно Chasing the Big Ones 26
    Chasing the Big Ones 26 скачать торрент
    Chasing the Big Ones 26 смотреть онлайн
    Cкачать фильм Chasing the Big Ones 26 бесплатно
    Chasing the Big Ones 26 скачать торрент в хорошем качестве
    Chasing the Big Ones 26 смотреть онлайн бесплатно в хорошем качестве
    Вы не можете начинать темы
    Вы не можете отвечать на сообщения
    Вы не можете редактировать свои сообщения
    Вы не можете удалять свои сообщения
    Вы не можете голосовать в опросах
    Вы не можете прикреплять файлы к сообщениям
    Вы можете скачивать файлы