Ссылка на приватное зеркало нашего сайта всего за 1$. Внимание количество ограничено!!!

2 сезон

iTunes

1 сезон

1

2 сезон

2 сезон

iTunes

1 сезон

RePack

30

Ultimate

ВАЖНО

ИГРА 18+

pack

RePack

MK11
pack

Забери бонус

RePack

jed

!!Акция!!

Alien_Rage

RePack

fifa19

RePack

Assassins Creed: Odyssey

RePack

NEED FOR SPEED™ PAYBACK

4 сезон

9 сезон

Бесстыжие 9 сезон

Все сериалы

все сериалы на PB.wtf

RePack

FAR CRY 5
  

Зеленый Фонарь: Изумрудные рыцари / Green Lantern: Emerald Knights (Крис Беркли, Лоурен Монтгомери, Джей Олива / Chris Berkeley, Lauren Montgomery, Jay Oliva) [2011, мультфильм, фантастика, фэнтези, боевик, приключения, DVDRip] DUB pb.wtf

Зеленый Фонарь: Изумрудные рыцари через торрент pb.wtf

Размер: 699 MB | Добавлен: 9 лет 5 мес. назад | Торрент скачан:114 раз
Скачать  

20-06-2011 12:00 Зеленый Фонарь: Изумрудные рыцари Скачать торрент  

Зеленый Фонарь: Изумрудные рыцари / Green Lantern: Emerald Knights

Страна: США
Жанр: мультфильм, фантастика, фэнтези, боевик, приключен
Продолжительность: 01:20:14
Год выпуска: 2011
Перевод: Профессиональный (дублированный) [Лицензия]
Русские субтитры: нет
Режиссёр: Крис Беркли, Лоурен Монтгомери, Джей Олива / Chris Berkeley, Lauren Montgomery, Jay Oliva
Роли озвучивали: Натан Филлион, Джейсон Айзекс, Элизабет Мосс, Келли Ху, Арнольд Вослоу, Стивен Блум, Генри Роллинз, Родди Пайпер, Брюс Томас, Уэйд Уильямс
Описание: Этот полнометражный анимационный фильм по Вселенной DC Comics открывает нам богатую мифологию мира Зеленого Фонаря в шести взаимосвязанных эпизодах. Ожидая сражения с Кроной, древним врагом Стражей Вселенной, Зеленые Фонари Земли: Хэл Джордан, Килавог, Синестро и другие бойцы Корпуса Зеленых Фонарей рассказывают новичку-рекруту Арисии о своих былых приключениях - от истории о Первом Фонаре до зловещих событий, которые привели к Самой Черной Ночи Корпуса!

Качество: DVDRip [DVD R5]
Формат: AVI
Видео: 720x400 (16:9), 25.000 fps, XviD 1016 kbps avg, 0.141 bit/pixel
Аудио: 48 kHz, AC3 Dolby Digital, 2/0 (L,R) ch, ~192.00 kbps avg
Субтитры: отсутствуют
Скачать: Сэмпл
GeneralComplete name : Zelenyj.Fonar.Izumrudnye.rycari.2011.XviD.DVDRip.700.aviFormat : AVIFormat/Info : Audio Video InterleaveFile size : 699 MiBDuration : 1h 20mnOverall bit rate : 1 218 KbpsWriting application : VirtualDubMod 1.5.10.3 | www.virtualdub-fr.org || (build 2550/release)Writing library : VirtualDubMod build 2550/release
VideoID : 0Format : MPEG-4 VisualFormat profile : Advanced Simple@L5Format settings, BVOP : YesFormat settings, QPel : NoFormat settings, GMC : No warppointsFormat settings, Matrix : Default (H.263)Codec ID : XVIDCodec ID/Hint : XviDDuration : 1h 20mnBit rate : 1 017 KbpsWidth : 720 pixelsHeight : 400 pixelsDisplay aspect ratio : 16:9Frame rate : 25.000 fpsColor space : YUVChroma subsampling : 4:2:0Bit depth : 8 bitsScan type : ProgressiveCompression mode : LossyBits/(Pixel*Frame) : 0.141Stream size : 584 MiB (83%)Writing library : XviD 62
AudioID : 1Format : AC-3Format/Info : Audio Coding 3Format profile : Dolby DigitalMode extension : CM (complete main)Codec ID : 2000Duration : 1h 20mnBit rate mode : ConstantBit rate : 192 KbpsChannel(s) : 2 channelsChannel positions : Front: L RSampling rate : 48.0 KHzBit depth : 16 bitsCompression mode : LossyStream size : 110 MiB (16%)Alignment : Split accross interleavesInterleave, duration : 40 ms (1.00 video frame)Interleave, preload duration : 500 ms
скриншот  скриншот  скриншот  скриншот  
pb.wtf



Скачать Зеленый Фонарь: Изумрудные рыцари через торрент http://i23.fastpic.ru/big/2011/0610/8e/1a9ec146784c3fbe58aae4e66a871d8e.png Скачать фильм Зеленый Фонарь: Изумрудные рыцари через торрент бесплантно в хорошем качестве Описание: Этот полнометражный анимационный фильм по Вселенной DC Comics открывает нам богатую мифологию мира Зеленого Фонаря в шести ... 10 10 2
Info! Золотая раздача, скачанное не засчитывается.
Торрент: Зарегистрирован [2011-06-20 12:00] · скачан: 114 раз
Статус: √ проверено
Размер: 699 MB
Как cкачать? Как скачать Зеленый Фонарь: Изумрудные рыцари через торрент | qTorrent

% Раздел Тема Автор DL S | L
Зарубежные Мультфильмы (BDRip 1080p, 720p, Blu-ray, BD-Remux) [ 13.2 GB ] Зеленый Фонарь: Изумрудные рыцари / Green Lantern: Emerald Knights [2011 мультфильм приключен BDRemux 1080p] DUB ACFIORENTINA Скачать
1 | 0

28-11-2019 20:33  

Отключить всю рекламу на сайте

20-06-2011 13:03 Зеленый Фонарь: Изумрудные рыцари Скачать торрент  

Скучный мульт.pb.wtf



20-06-2011 13:26 Зеленый Фонарь: Изумрудные рыцари Скачать торрент  

Это точно DVDRip ??? А то его только в кинотеатре показывают.pb.wtf



20-06-2011 14:02 Зеленый Фонарь: Изумрудные рыцари Скачать торрент  

djonkiler писал(а):

Это точно DVDRip ??? А то его только в кинотеатре показывают.

в кинотеатрах идет фильм, а это мульт.pb.wtf



    Дорогой пользователь! Огромная просьба, поблагодарите релизера, оцените раздачу и оставьте свои комментарий, если Вы скачали Зеленый Фонарь: Изумрудные рыцари через торрент бесплатно! Внесите свою лепту в развитие PiratBit!
    Комментировать посты могут только пользователи прошедшие не сложную регистрацию
    Показать сообщения:    

    Зеленый Фонарь: Изумрудные рыцари через торрент
    Скачать бесплатно Зеленый Фонарь: Изумрудные рыцари
    Зеленый Фонарь: Изумрудные рыцари скачать торрент
    Зеленый Фонарь: Изумрудные рыцари смотреть онлайн
    Cкачать фильм Зеленый Фонарь: Изумрудные рыцари бесплатно
    Зеленый Фонарь: Изумрудные рыцари скачать торрент в хорошем качестве
    Зеленый Фонарь: Изумрудные рыцари смотреть онлайн бесплатно в хорошем качестве


    Вы не можете начинать темы
    Вы не можете отвечать на сообщения
    Вы не можете редактировать свои сообщения
    Вы не можете удалять свои сообщения
    Вы не можете голосовать в опросах
    Вы не можете прикреплять файлы к сообщениям
    Вы можете скачивать файлы