Всегда рабочее зеркало без VPN и Proxy просто перед .vidak.icu напиши любое слово или цифру, Пример http://dv1t.vidak.icu

MVO

Лицензия

1 сезон

1

1 сезон

iTunes

1 сезон

13

1 сезон

Deluxe

pack

Рекомендуем

Пиратка

30

ВАЖНО

RePack

MK11

RePack

jed

RePack

fifa19

RePack

RDR2

RePack

NEED FOR SPEED™ PAYBACK

Кинопоиск HD

6 сезон

 Острые козырьки 6 сезон

Все сериалы

все сериалы на PB.wtf

RePack

FAR CRY 5

Anonymous, нам критически не хватает 2100 руб. на оплату серверов и переферии за МАЙ, помоги нам пожалуйста, вся надежда только на тебя. В благодарность мы отключим тебе всю рекламу на сайте!

×
  
Magnet ссылка

Коммуналка (Максим Бриус) [2011 г., криминал, DVD5] pb.wtf

Смотреть онлайн Коммуналка | Скачать    Ребята, помогите собрать деньги на оплату серверов!!!

26-03-2012 11:47 Коммуналка Скачать торрент  

Коммуналка

Год выпуска: 2011
Страна: Россия
Жанр: криминал
Продолжительность: 01:29:21
Перевод: Не требуется
  • Режиссер: Максим Бриус
  • Продюссер: Инесса Юрченко, Сергей Щеглов, Алексей Рыбин
  • Сценарий: Андрей Тумаркин

В ролях: Евгений Пронин, Ксения Скакун, Алексей Осипов, Дарья Чернявская, Антон Пулит, Алексей Федькин, Вадим Лобанов, Николай Замула, Оксана Базилевич, Сергей Васильев

Описание: Паша Раевский — лейтенант милиции — развелся с женой и переехал в коммунальную квартиру. Его соседями по коммуналке оказались стриптизерша Вика и недавно вернувшийся после очередной отсидки Виктор. Поначалу отношения соседей складывались почти враждебно. Но случается так, что подруга Вики Ирина становится свидетельницей убийства крупного криминального авторитета Андрона. И в панике приезжает к Вике. Туда же за ней приезжают бандиты. Девушек спасает неожиданно вернувшийся домой Виктор. Он убивает одного из бандитов и вместе с девушками пускается в бега. У беглецов нет другого выхода, кроме как обратиться за помощью к своему соседу Паше. В итоге все жители коммунальной квартиры оказываются втянуты в бандитские разборки. По одиночке им не справиться, и они вынуждены держаться друг друга.
  • Качество: DVD5
  • Формат: DVD Video
  • Видео кодек: MPEG2
  • Аудио кодек: AC3
  • Видео: MPEG 2, 720x576 (16:9), 25.000 fps, 8 000 Kbps (0.612 bit/pixel)
  • Аудио: AC-3, 48.0 KHz, 6 ch, 448 Kbps, CBR
--> Перейти к DVDRip <--
Скриншоты меню

скриншот   скриншот   скриншот  

Анаморфные cкриншоты

скриншот   скриншот   скриншот   скриншот  

Скриншоты

скриншот   скриншот   скриншот   скриншот   скриншот  

Title: Kommunalka.2011.DVD-5
Size: 4.19 Gb ( 4 396 498,00 KBytes ) - DVD-5
Enabled regions: 1, 2, 3, 4, 5, 6, 7, 8

VTS_01 :
Play Length: 01:29:49
Video: PAL 16:9 (720x576) VBR, Auto Letterboxed
Audio:
Russian (Dolby AC3, 6 ch)

* Menus Information *

VIDEO_TS Menu
Video:
PAL 4:3 (720x576) VBR
Audio:
Not specified (Dolby AC3, 2 ch)
English Language Unit :
Title Menu

VTS_01 Menu
Video:
PAL 16:9 (720x576) VBR
Auto Letterboxed
Audio:
Not specified (Dolby AC3, 6 ch)
English Language Unit :
Root Menu
Общее
Полное имя : E:\Kommunalka.2011.DVD-5\VIDEO_TS\VTS_01_1.VOB
Формат : MPEG-PS
Размер файла : 1024 Мбайт
Продолжительность : 20 м.
Режим общего битрейта : Переменный
Общий поток : 6931 Кбит/сек

Видео
Идентификатор : 224 (0xE0)
Формат : MPEG Video
Версия формата : Version 2
Профиль формата : Main@Main
Параметр BVOP формата : Да
Параметр матрицы формата : Выборочная
Продолжительность : 20 м.
Вид битрейта : Переменный
Битрейт : 6345 Кбит/сек
Максимальный битрейт : 8000 Кбит/сек
Ширина : 720 пикселей
Высота : 576 пикселей
Соотношение сторон : 16:9
Частота кадров : 25,000 кадров/сек
Стандарт вещания : PAL
Цветовое пространство : YUV
Субдискретизация насыщенности : 4:2:0
Битовая глубина : 8 бит
Тип развёртки : Чересстрочная
Порядок развёртки : Верхнее поле первое
Метод сжатия : С потерями
Бит/(Пиксели*Кадры) : 0.612
Размер потока : 937 Мбайт (92%)

Аудио
Идентификатор : 189 (0xBD)-128 (0x80)
Формат : AC-3
Формат/Информация : Audio Coding 3
Расширение режима : CM (complete main)
Режим смешивания : DVD-Video
Продолжительность : 20 м.
Вид битрейта : Постоянный
Битрейт : 448 Кбит/сек
Каналы : 6 каналов
Расположение каналов : Front: L C R, Side: L R, LFE
Частота : 48,0 КГц
Битовая глубина : 16 бит
Метод сжатия : С потерями
Размер потока : 66,2 Мбайт (6%)

Меню
pb.wtf



Скачать
Чтобы иметь возможность скачивать с Торрент Трекера, нужно Зарегистрироваться

Как скачивать  ·  Рейтинг и ограничения

28-11-2019 20:33  

Отключить всю рекламу на сайте

    Дорогой пользователь! Огромная просьба, поблагодарите релизера, оцените раздачу и оставьте свои комментарий, если Вы скачали Коммуналка через торрент бесплатно!
    Комментировать посты могут только пользователи прошедшие не сложную регистрацию
    Показать сообщения:    

    Коммуналка через торрент
    Скачать бесплатно Коммуналка
    Коммуналка скачать торрент
    Коммуналка смотреть онлайн
    Cкачать фильм Коммуналка бесплатно
    Коммуналка скачать торрент в хорошем качестве
    Коммуналка смотреть онлайн бесплатно в хорошем качестве


    Вы не можете начинать темы
    Вы не можете отвечать на сообщения
    Вы не можете редактировать свои сообщения
    Вы не можете удалять свои сообщения
    Вы не можете голосовать в опросах
    Вы не можете прикреплять файлы к сообщениям
    Вы не можете скачивать файлы