Лицензия

MVO

1

1 сезон

Лицензия

Лицензия

13

MVO

1 сезон

Deluxe Edition

pack

Рекомендуем

30

Repack

ВАЖНО

ВАЖНО

Ghostwire

RePack

jed

RePack

fifa19

RePack

RDR2

RePack

NEED FOR SPEED™ PAYBACK

RePack

Кинопоиск HD

 Острые козырьки 6 сезон

6 сезон

FAR CRY 6

RePack

Лицензия

MVO

1

1 сезон

1 сезон

Лицензия

  

Свадебный разгром / A Few Best Men (Стефан Эллиотт) [2011 г., комедия, HDRip, DUB (лицензия)]

Свадебный разгром через торрент pb.wtf

Размер: 691 MB | Добавлен: 10 лет назад | Торрент скачан:183 раза
Смотреть онлайн Свадебный разгром | Скачать   

06-06-2012 07:15 Свадебный разгром Скачать торрент  

Свадебный разгром / A Few Best Men

Год выпуска: 2011
Страна: США
Жанр: комедия
Продолжительность: 01:36:34
Перевод: Дубляж (Лицензия)
Тип релиза: Лицензия
Режиссер: Стефан Эллиотт
Продюссер: Антония Барнард, Гари Хэмилтон, Лоуренс Малкин

В ролях: Завьер Сэмюэл, Крис Маршалл, Кевин Бишоп, Тим Драксл, Лаура Брент, Ребел Уилсон, Оливия Ньютон-Джон, Джонатан Биггинс, Стив Ле Маркванд, Solveig Walking, Прохор Чеховской, Иван Жарков, Диомид Виноградов, Сергей Смирнов, Ольга Зубкова

Описание: Как празднуют свадьбу в Австралии? Да круче, чем новый год в России. Шикарная церемония, море алкоголя и тройка верных друзей, решивших оторваться на полную катушку. Сможет ли настоящая любовь пережить эти испытания?
Качество: HDRip
Формат: AVI
Видео кодек: XviD
Аудио кодек: MP3
Видео: 640x272 (2.35:1), 24 fps, XviD build 57 ~862 kbps avg, 0.21 bit/pixel
Аудио: 48 kHz, MPEG Layer 3, 2 ch, ~128.00 kbps avg



Format : AVI
Format/Info : Audio Video Interleave
File size : 691 MiB
Duration : 1h 36mn
Overall bit rate : 1 000 Kbps
Writing application : VirtualDubMod 1.5.10.2 (build 2540/release)
Writing library : VirtualDubMod build 2540/release

Video
ID : 0
Format : MPEG-4 Visual
Format profile : Advanced [email protected]
Format settings, BVOP : 2
Format settings, QPel : No
Format settings, GMC : No warppoints
Format settings, Matrix : Default (H.263)
Codec ID : XVID
Codec ID/Hint : XviD
Duration : 1h 36mn
Bit rate : 863 Kbps
Width : 640 pixels
Height : 272 pixels
Display aspect ratio : 2.35:1
Frame rate : 24.000 fps
Color space : YUV
Chroma subsampling : 4:2:0
Bit depth : 8 bits
Scan type : Progressive
Compression mode : Lossy
Bits/(Pixel*Frame) : 0.207
Stream size : 596 MiB (86%)
Writing library : XviD 57

Audio
ID : 1
Format : MPEG Audio
Format version : Version 1
Format profile : Layer 3
Codec ID : 55
Codec ID/Hint : MP3
Duration : 1h 36mn
Bit rate mode : Constant
Bit rate : 128 Kbps
Channel(s) : 2 channels
Sampling rate : 48.0 KHz
Compression mode : Lossy
Stream size : 88.4 MiB (13%)
Alignment : Aligned on interleaves
Interleave, duration : 42 ms (1.00 video frame)
Interleave, preload duration : 504 ms
Writing library : LAME3.99r
Encoding settings : -m s -V 4 -q 2 -lowpass 17 -b 128




Скачать Свадебный разгром через торрент http://i25.fastpic.ru/big/2012/0606/f3/3815ed757ffdd0804b67f324cb7691f3.png Скачать, смотреть онлайн Свадебный разгром бесплантно в хорошем качестве Описание: Как празднуют свадьбу в Австралии? Да круче, чем новый год в России. Шикарная церемония, море алкоголя и тройка верных друзей, ... 10 10 1
Info! Золотая раздача, скачанное не засчитывается.
Торрент: Зарегистрирован [2012-06-06 07:15] · скачан: 183 раз
Статус: √ проверено
Размер: 691 MB
Как cкачать? Как скачать Свадебный разгром через торрент | UTorrent

% Раздел Тема Автор DL S | L
Фильмы 2011 [ 2.18 GB ] Свадебный разгром / A Few Best Men | DUB + Original + Sub | BDRip-AVC potroks Скачать
1 | 0
Фильмы 2011 [ 1.46 GB ] Свадебный разгром / A Few Best Men | DUB | BDRip, DUB, лицензия maygli Скачать
1 | 0
Фильмы 2011 [ 2.05 GB ] Свадебный разгром / A Few Best Men | DUB + Original Eng | HDRip Mr. Freeman Скачать
1 | 0
Фильмы (DVD фильмы) [ 6.93 GB ] Свадебный разгром / A Few Best Men | | Свадебный разгром / A Few Best Men (Стефан Эллиотт / Stephan Elliott voovaz Скачать
1 | 0
Фильмы [HD 720p, 1080p] (Хороший звук DUB, MVO) [ 7.78 GB ] Свадебный разгром / A Few Best Men | DUB | 1080p DEVI Скачать
1 | 0
Фильмы [HD 720p, 1080p] (Хороший звук DUB, MVO) [ 4.67 GB ] Свадебный разгром / A Few Best Men | DUB | 720p ~Relizer~ Скачать
1 | 0
Фильмы 2011 [ 967 MB ] Свадебный разгром / A Few Best Men | DUB | BDRip-AVC slaventi-69 Скачать
1 | 0

28-11-2019 20:33  

Отключить вcю реклaмy на сайте

06-06-2012 13:45 Свадебный разгром Скачать торрент  

скорости



07-06-2012 15:55 Свадебный разгром Скачать торрент  

gtrykin,Скорости не могу дать. Могу пред дать...



08-06-2012 12:48 Свадебный разгром Скачать торрент  

Newton5 писал(а):

gtrykin,Скорости не могу дать. Могу пред дать...

такие умные все прям



    Дорогой пользователь! Огромная просьба, поблагодарите релизера, оцените раздачу и оставьте свои комментарий, если Вы скачали Свадебный разгром через торрент бесплатно!!
    Комментировать посты могут только пользователи прошедшие не сложную регистрацию
    Показать сообщения:    


    Свадебный разгром через торрент
    Скачать бесплатно Свадебный разгром
    Свадебный разгром скачать торрент
    Свадебный разгром смотреть онлайн
    Cкачать фильм Свадебный разгром бесплатно
    Свадебный разгром скачать торрент в хорошем качестве
    Свадебный разгром смотреть онлайн бесплатно в хорошем качестве
    Вы не можете начинать темы
    Вы не можете отвечать на сообщения
    Вы не можете редактировать свои сообщения
    Вы не можете удалять свои сообщения
    Вы не можете голосовать в опросах
    Вы не можете прикреплять файлы к сообщениям
    Вы можете скачивать файлы