Всегда рабочее зеркало без VPN и Proxy просто перед .vidak.icu напиши любое слово или цифру, Пример http://8sb4.vidak.icu

MVO

Лицензия

1 сезон

1

1 сезон

iTunes

1 сезон

13

1 сезон

Deluxe

pack

Рекомендуем

Пиратка

30

ВАЖНО

RePack

MK11

RePack

jed

RePack

fifa19

RePack

RDR2

RePack

NEED FOR SPEED™ PAYBACK

Кинопоиск HD

6 сезон

 Острые козырьки 6 сезон

Все сериалы

все сериалы на PB.wtf

RePack

FAR CRY 5
  
Magnet ссылка

Armin van Buuren - Ultra Music Festival 2012 / Armin van Buuren - Ultra Music Festival 2012 [2012 г., Trance, HDTV, Оригинал] pb.wtf

Armin van Buuren - Ultra Music Festival 2012 через торрент pb.wtf

Размер: 8.75 GB | Добавлен: 8 лет 11 мес. назад | Торрент скачан:22 раза
Смотреть онлайн Armin van Buuren - Ultra Music Festival 2012 | Скачать    Ребята, помогите собрать деньги на оплату серверов!!!

01-08-2013 03:11 Armin van Buuren - Ultra Music Festival 2012 Скачать торрент  

Armin van Buuren - Ultra Music Festival 2012 / Armin van Buuren - Ultra Music Festival 2012
Год выпуска: 2012
Страна: Майями
Жанр: Trance,
Продолжительность: 00:59:56
Перевод: Оригинал
Субтитры: Нет

Премьера в мире: 2012
01. Omnia - The Fusion (Armin van Buuren’s Intro Edit)
02. Cosmic Gate feat. Emma Hewitt - Be Your Sound
03. Armin van Buuren vs. Sophie Ellis-Bextor - Not Giving Up On Love (Dash Berlin 4AM Mix)
04. The Killers - Mr. Brightside (Marco V Treatment)
05. W&W - Impact (MaRLo Remix)
06. Armin van Buuren pres. Gaia - J’ai Envie De Toi
07. Armin van Buuren & Orjan Nilsen - Belter
08. Ferry Corsten vs. Armin van Buuren - Brute
09. Gareth Emery feat. Christina Novelli - Concrete Angel (John O’Callaghan Remix)
10. Dakota vs. Marcel Woods - Advanced Sleepwalkers (Markus Schulz Mashup)
11. John O’Callaghan - Stresstest
12. John O’Callaghan vs. Armin van Buuren feat. Sharon den Adel - In and Out of a Raw Deal (Armin van Buuren Mashup)
Качество: HDTV
Формат: MPEG-TS
Видео кодек: MPEG-2
Аудио кодек: МР2
Видео : MPEG-2,1920x1080 (16:9),29.970 fps,~20891 Kbps
Аудио : MP2,48000 Hz Stereo, 2 channels,~384 Кбит/сек
Format : MPEG-TS
File size : 8.75 GiB
Duration : 59mn 56s
Overall bit rate mode : Variable
Overall bit rate : 20.9 Mbps
Maximum Overall bit rate : 35.5 Mbps

Video
ID : 4113 (0x1011)
Menu ID : 1 (0x1)
Format : MPEG Video
Format version : Version 2
Format profile : Main@High
Format settings, BVOP : Yes
Format settings, Matrix : Custom
Format settings, GOP : M=3, N=15
Codec ID : 2
Duration : 59mn 56s
Bit rate mode : Variable
Bit rate : 19.5 Mbps
Maximum bit rate : 20.0 Mbps
Width : 1 920 pixels
Height : 1 080 pixels
Display aspect ratio : 16:9
Frame rate : 29.970 fps
Color space : YUV
Chroma subsampling : 4:2:0
Bit depth : 8 bits
Scan type : Interlaced
Scan order : Top Field First
Compression mode : Lossy
Bits/(Pixel*Frame) : 0.313
Stream size : 8.15 GiB (93%)

Audio
ID : 4352 (0x1100)
Menu ID : 1 (0x1)
Format : MPEG Audio
Format version : Version 1
Format profile : Layer 2
Codec ID : 4
Duration : 59mn 56s
Bit rate mode : Constant
Bit rate : 384 Kbps
Channel(s) : 2 channels
Sampling rate : 48.0 KHz
Compression mode : Lossy
Stream size : 165 MiB (2%)



pb.wtf



Скачать Armin van Buuren - Ultra Music Festival 2012 через торрент https://pic1.kartinco.top/images/23/3aqw7xj11n.jpg Скачать, смотреть онлайн Armin van Buuren - Ultra Music Festival 2012 бесплантно в хорошем качестве Треклист: Omnia - The Fusion (Armin van Buuren’s Intro Edit) Cosmic Gate feat. Emma Hewitt - Be Your Sound Armin van Buuren vs. ... 10 10 4
Info! Золотая раздача, скачанное не засчитывается.
Торрент: Зарегистрирован [2013-08-01 03:11] · скачан: 22 раз
Статус: √ проверено
Размер: 8.75 GB
Как cкачать? Как скачать Armin van Buuren - Ultra Music Festival 2012 через торрент | UTorrent



Последний раз редактировалось: Frolov (2013-08-01 10:04), всего редактировалось 1 раз

28-11-2019 20:33  

Отключить всю рекламу на сайте

01-08-2013 07:27 Armin van Buuren - Ultra Music Festival 2012 Скачать торрент  

Frolov
Трэклист спрячь в спойлер. Нет инфы по аудио. Переделай скриншоты. Они не соответствуют заявленному размеру.
Выложи информацию МедиаИнфо
pb.wtf



    Дорогой пользователь! Огромная просьба, поблагодарите релизера, оцените раздачу и оставьте свои комментарий, если Вы скачали Armin van Buuren - Ultra Music Festival 2012 через торрент бесплатно!
    Комментировать посты могут только пользователи прошедшие не сложную регистрацию
    Показать сообщения:    

    Armin van Buuren - Ultra Music Festival 2012 через торрент
    Скачать бесплатно Armin van Buuren - Ultra Music Festival 2012
    Armin van Buuren - Ultra Music Festival 2012 скачать торрент
    Armin van Buuren - Ultra Music Festival 2012 смотреть онлайн
    Cкачать фильм Armin van Buuren - Ultra Music Festival 2012 бесплатно
    Armin van Buuren - Ultra Music Festival 2012 скачать торрент в хорошем качестве
    Armin van Buuren - Ultra Music Festival 2012 смотреть онлайн бесплатно в хорошем качестве


    Вы не можете начинать темы
    Вы не можете отвечать на сообщения
    Вы не можете редактировать свои сообщения
    Вы не можете удалять свои сообщения
    Вы не можете голосовать в опросах
    Вы не можете прикреплять файлы к сообщениям
    Вы можете скачивать файлы