Ссылка на приватное зеркало нашего сайта всего за 1$. Внимание количество ограничено!!!

2 сезон

iTunes

1 сезон

1

2 сезон

2 сезон

iTunes

1 сезон

RePack

30

Ultimate

ВАЖНО

ИГРА 18+

pack

RePack

MK11
pack

Забери бонус

RePack

jed

!!Акция!!

Alien_Rage

RePack

fifa19

RePack

Assassins Creed: Odyssey

RePack

NEED FOR SPEED™ PAYBACK

4 сезон

9 сезон

Бесстыжие 9 сезон

Все сериалы

все сериалы на PB.wtf

RePack

FAR CRY 5
  

Букашки. Приключение в Долине муравьев / Minuscule - La vallée des fourmis perdues (Хелен Жиро / Hélène Giraud, Томас Забо / Thomas Szabo) [2013, Франция, мультфильм, приключения, семейный, WEB-DLRip] pb.wtf

Букашки. Приключение в Долине муравьев через торрент pb.wtf

Раздают: 1 [ 0 KB/s ]
Размер: 1.37 GB | Добавлен: 6 лет 5 мес. назад | Торрент скачан:2170 раз
Скачать  

26-05-2014 03:03 Букашки. Приключение в Долине муравьев Скачать торрент  

Букашки. Приключение в Долине муравьев / Minuscule - La vallée des fourmis perdues

Год выпуска: 2013
Страна: Франция
Жанр: мультфильм, приключения, семейный
Продолжительность: 01:24:42
Перевод: Не требуется
Субтитры: Нет
Режиссер: Хелен Жиро / Hélène Giraud, Томас Забо / Thomas Szabo
Описание:
Активные и любознательные черные муравьишки обнаруживают брошенную после пикника коробку с сахаром. Дружный отряд муравьишек вместе с Божьей коровкой решают переправить лакомство в муравейник. Но сладкая коробка уже успела нарушить спокойствие во всей долине, и свои планы на лакомство появились у других обитателей леса, в частности - у злобных красных муравьев-захватчиков. А, стало быть, на пути к заветной цели черным муравьишкам предстоит преодолеть массу опасностей и приключений.
Рейтинг
imdb.com: 7.10 (398)
Качество: WEB-DLRip
Формат: AVI
Видео кодек: XviD
Аудио кодек: AC3
Видео: XviD, 720x304 (2.35:1), 2109 kbps, 25 fps, 0,386 bpp
Аудио: AC3 / 2.0 / 48 kHz / 192 kbps / 16 bit

General
Complete name : D:\Торенты\Pr1kljuch3nie.v.D0line.murav1ev.2013.WEB-DLRip.1400MB.avi
Format : AVI
Format/Info : Audio Video Interleave
File size : 1.37 GiB
Duration : 1h 24mn
Overall bit rate : 2 312 Kbps
Writing application : VirtualDubMod 1.5.10.3 | www.virtualdub-fr.org || (build 2550/release)
Writing library : VirtualDubMod build 2550/release

Video
ID : 0
Format : MPEG-4 Visual
Format profile : Advanced Simple@L5
Format settings, BVOP : 2
Format settings, QPel : No
Format settings, GMC : No warppoints
Format settings, Matrix : Custom
Codec ID : XVID
Codec ID/Hint : XviD
Duration : 1h 24mn
Bit rate : 2 110 Kbps
Width : 720 pixels
Height : 304 pixels
Display aspect ratio : 2.35:1
Frame rate : 25.000 fps
Color space : YUV
Chroma subsampling : 4:2:0
Bit depth : 8 bits
Scan type : Progressive
Compression mode : Lossy
Bits/(Pixel*Frame) : 0.386
Stream size : 1.25 GiB (91%)
Writing library : XviD 1.2.1 (UTC 2008-12-04)

Audio
ID : 1
Format : AC-3
Format/Info : Audio Coding 3
Mode extension : CM (complete main)
Codec ID : 2000
Duration : 1h 24mn
Bit rate mode : Constant
Bit rate : 192 Kbps
Channel(s) : 2 channels
Channel positions : Front: L R
Sampling rate : 48.0 KHz
Bit depth : 16 bits
Compression mode : Lossy
Stream size : 116 MiB (8%)
Alignment : Split accross interleaves
Interleave, duration : 40 ms (1.00 video frame)
Interleave, preload duration : 500 ms
pb.wtf



Скачать Букашки. Приключение в Долине муравьев через торрент http://i61.fastpic.ru/big/2014/0526/fe/4dd2df8294c5761ce6a8eab5f34b01fe.jpg Скачать фильм Букашки. Приключение в Долине муравьев через торрент бесплантно в хорошем качестве Описание: Активные и любознательные черные муравьишки обнаруживают брошенную после пикника коробку с сахаром. Дружный отряд муравьишек ... 9.7 10 53
Торрент: Зарегистрирован [2014-06-23 08:13] · скачан: 2 170 раз
Статус: √ проверено
Размер: 1.37 GB
Как cкачать? Как скачать Букашки. Приключение в Долине муравьев через торрент | qTorrent

% Раздел Тема Автор DL S | L
Иностранные мультфильмы [ 1.46 GB ] Букашки. Приключение в Долине муравьев / Minuscule - La vallée des fourmis perdues [2013 мультфильм BDRip] [] Twi7ter Скачать
5 | 0
Зарубежные Мультфильмы (BDRip 1080p, 720p, Blu-ray, BD-Remux) [ 3.26 GB ] Букашки. Приключение в Долине муравьев / Minuscule - La vallée des fourmis perdues [2013 мультфильм BDRip 720p] -=DANTE=- Скачать
1 | 0
3D Мультфильмы [ 21.64 GB ] Букашки. Приключение в Долине муравьев / Minuscule - La vallée des fourmis perdues [2013 мультфильм Blu-ray 2D 3D] кэп Скачать
1 | 0
Иностранные мультфильмы [ 1.46 GB ] Букашки. Приключение в Долине муравьев / Minuscule - La vallée des fourmis perdues [2013 Мультфильм BDRip-AVC] potroks Скачать
1 | 0

28-11-2019 20:33  

Отключить всю рекламу на сайте

26-05-2014 06:26 Букашки. Приключение в Долине муравьев Скачать торрент  

Вот бы ещё и в Хай Дивидишен..pb.wtf



26-05-2014 08:23 Букашки. Приключение в Долине муравьев Скачать торрент  

Bobr751 писал(а):

Вот бы ещё и в Хай Дивидишен..


Может ты имел ввиду High Definition?pb.wtf



26-05-2014 16:35 Букашки. Приключение в Долине муравьев Скачать торрент  

Alexius_Rusus писал(а):

Bobr751 писал(а):

Вот бы ещё и в Хай Дивидишен..


Может ты имел ввиду High Definition?

Да, безусловно, это стёб, в подражание нынешней "Круто грамотной" молодёжи.pb.wtf



28-05-2014 19:42 Букашки. Приключение в Долине муравьев Скачать торрент  

Прикольный мульт, смотрели с детками сериал 2006-2012 года.
Рад что есть продолжение!pb.wtf



01-06-2014 16:49 Букашки. Приключение в Долине муравьев Скачать торрент  

такой замечательный добрый мультик-погрузившись в эти приключения-какбудто сам стал букашкой-семейный такой-к просмотру всем однозначноpb.wtf



01-06-2014 17:47 Букашки. Приключение в Долине муравьев Скачать торрент  

младшему понравился, спасибоpb.wtf



    Дорогой пользователь! Огромная просьба, поблагодарите релизера, оцените раздачу и оставьте свои комментарий, если Вы скачали Букашки. Приключение в Долине муравьев через торрент бесплатно! Внесите свою лепту в развитие PiratBit!
    Комментировать посты могут только пользователи прошедшие не сложную регистрацию
    Показать сообщения:    

    Букашки. Приключение в Долине муравьев через торрент
    Скачать бесплатно Букашки. Приключение в Долине муравьев
    Букашки. Приключение в Долине муравьев скачать торрент
    Букашки. Приключение в Долине муравьев смотреть онлайн
    Cкачать фильм Букашки. Приключение в Долине муравьев бесплатно
    Букашки. Приключение в Долине муравьев скачать торрент в хорошем качестве
    Букашки. Приключение в Долине муравьев смотреть онлайн бесплатно в хорошем качестве


    Вы не можете начинать темы
    Вы не можете отвечать на сообщения
    Вы не можете редактировать свои сообщения
    Вы не можете удалять свои сообщения
    Вы не можете голосовать в опросах
    Вы не можете прикреплять файлы к сообщениям
    Вы можете скачивать файлы