Ссылка на приватное зеркало нашего сайта всего за 1$. Внимание количество ограничено!!!

2 сезон

iTunes

1 сезон

1

2 сезон

2 сезон

iTunes

1 сезон

RePack

30

Ultimate

ВАЖНО

ИГРА 18+

pack

RePack

MK11
pack

Забери бонус

RePack

jed

!!Акция!!

Alien_Rage

RePack

fifa19

RePack

Assassins Creed: Odyssey

RePack

NEED FOR SPEED™ PAYBACK

4 сезон

9 сезон

Бесстыжие 9 сезон

Все сериалы

все сериалы на PB.wtf

RePack

FAR CRY 5
  

Хуан - истребитель кубинских зомби / Juan de los Muertos (Алехандро Бругес) [2011 г., Комедия, Ужасы, BDRip 720p, Дубляж, Лицензия, VO] pb.wtf

Хуан - истребитель кубинских зомби через торрент pb.wtf

Размер: 4.93 GB | Добавлен: 6 лет 5 мес. назад | Торрент скачан:59 раз
Скачать  

17-06-2014 01:43 Хуан - истребитель кубинских зомби Скачать торрент  

Хуан - истребитель кубинских зомби / Juan de los Muertos
Год выпуска: 2011
Страна: Куба, Испания
Жанр: Комедия, Ужасы
Продолжительность: 01:36:00
Перевод: Дубляж, Лицензия + Одноголосый

Режиссер: Алехандро Бругес

В ролях: Андреа Дуро, Алексис Диаз Де Виллегас, Хорхе Молина, Андрос Перугоррия, Джазз Вила

Описание: Гавана переживает эпидемию зомби. 40-летний бездельник Хуан решил заработать на этом. Под девизом «Хуан избавит вас от тех, кого вы любили» он предлагает людям за деньги избавляться от окружающих их инфицированных родственников и друзей. Но, когда эпидемия зомби накрывает всю страну, Хуан вынужден думать уже не о своем заработке, а о выживании.

Качество: BDRip 720p
Формат: MKV
Видео кодек: AVC
Аудио кодек: AC3
Видео: AVC, 5015 Кбит/сек, 1280x688, 24.000 кадр/сек
Аудио#1: AC3, 384 Кбит/сек, 6 каналов, 48 КГц - Дубляж
Аудио#2: AC3, 448 Кбит/сек, 6 каналов, 48 КГц - rus Den904
Аудио#3: DTS, 1509 Кбит/сек, 6 каналов, 48 КГц - spa
General
Unique ID : 182371630521327873889817589390910653313 (0x89337F98A28E6DB689ACF9B0EA3F8381)
Complete name : D:\Proba\Juan.de.los.Muertos.2011.720p.BDRip.2xRus.Spa.mkv
Format : Matroska
Format version : Version 4 / Version 2
File size : 4.93 GiB
Duration : 1h 36mn
Overall bit rate : 7 357 Kbps
Encoded date : UTC 2014-06-16 14:50:27
Writing application : mkvmerge v7.0.0 ('Where We Going') 64bit built on Jun 9 2014 15:16:27
Writing library : libebml v1.3.0 + libmatroska v1.4.1
_STATISTICS_WRITING_APP : mkvmerge v7.0.0 ('Where We Going') 64bit built on Jun 9 2014 15:16:27
_STATISTICS_WRITING_DATE_UTC : 2014-06-16 14:50:27
_STATISTICS_TAGS : BPS DURATION NUMBER_OF_FRAMES NUMBER_OF_BYTES
DURATION : 01:31:21.760000000
NUMBER_OF_FRAMES : 855
NUMBER_OF_BYTES : 30173

Video
ID : 1
Format : AVC
Format/Info : Advanced Video Codec
Format profile : High@L4.1
Format settings, CABAC : Yes
Format settings, ReFrames : 8 frames
Codec ID : V_MPEG4/ISO/AVC
Duration : 1h 36mn
Bit rate : 5 015 Kbps
Width : 1 280 pixels
Height : 688 pixels
Display aspect ratio : 1.85:1
Frame rate mode : Constant
Frame rate : 24.000 fps
Color space : YUV
Chroma subsampling : 4:2:0
Bit depth : 8 bits
Scan type : Progressive
Bits/(Pixel*Frame) : 0.237
Stream size : 3.27 GiB (66%)
Title : Juan.of.the.Dead.2011.Blu-ray.720p.x264.DTS.MySilu
Writing library : x264 core 125 r2208 d9d2288
Encoding settings : cabac=1 / ref=8 / deblock=1:-2:-2 / analyse=0x3:0x133 / me=umh / subme=9 / psy=1 / psy_rd=1.20:0.20 / mixed_ref=1 / me_range=16 / chroma_me=1 / trellis=2 / 8x8dct=1 / cqm=0 / deadzone=21,11 / fast_pskip=1 / chroma_qp_offset=-3 / threads=9 / lookahead_threads=1 / sliced_threads=0 / nr=0 / decimate=0 / interlaced=0 / bluray_compat=0 / constrained_intra=0 / bframes=3 / b_pyramid=2 / b_adapt=2 / b_bias=0 / direct=3 / weightb=1 / open_gop=0 / weightp=2 / keyint=240 / keyint_min=1 / scenecut=40 / intra_refresh=0 / rc_lookahead=60 / rc=2pass / mbtree=1 / bitrate=5015 / ratetol=1.0 / qcomp=0.60 / qpmin=10 / qpmax=51 / qpstep=4 / cplxblur=20.0 / qblur=0.5 / vbv_maxrate=38000 / vbv_bufsize=38000 / nal_hrd=none / ip_ratio=1.40 / aq=1:1.00
Language : Spanish
Default : No
Forced : No

Audio #1
ID : 2
Format : AC-3
Format/Info : Audio Coding 3
Mode extension : CM (complete main)
Format settings, Endianness : Big
Codec ID : A_AC3
Duration : 1h 36mn
Bit rate mode : Constant
Bit rate : 384 Kbps
Channel(s) : 6 channels
Channel positions : Front: L C R, Side: L R, LFE
Sampling rate : 48.0 KHz
Bit depth : 16 bits
Compression mode : Lossy
Delay relative to video : 1s 0ms
Stream size : 264 MiB (5%)
Title : Dub
Language : Russian
Default : Yes
Forced : No

Audio #2
ID : 3
Format : AC-3
Format/Info : Audio Coding 3
Mode extension : CM (complete main)
Format settings, Endianness : Big
Codec ID : A_AC3
Duration : 1h 36mn
Bit rate mode : Constant
Bit rate : 448 Kbps
Channel(s) : 6 channels
Channel positions : Front: L C R, Side: L R, LFE
Sampling rate : 48.0 KHz
Bit depth : 16 bits
Compression mode : Lossy
Stream size : 308 MiB (6%)
Title : Den904 AC3 5.1 448 kbps
Language : Russian
Default : No
Forced : No

Audio #3
ID : 4
Format : DTS
Format/Info : Digital Theater Systems
Mode : 16
Format settings, Endianness : Big
Codec ID : A_DTS
Duration : 1h 36mn
Bit rate mode : Constant
Bit rate : 1 509 Kbps
Channel(s) : 6 channels
Channel positions : Front: L C R, Side: L R, LFE
Sampling rate : 48.0 KHz
Bit depth : 16 bits
Compression mode : Lossy
Stream size : 1.01 GiB (21%)
Title : Original DTS 5.1 1536 kbps
Language : Spanish
Default : No
Forced : No

Text
ID : 5
Format : UTF-8
Codec ID : S_TEXT/UTF8
Codec ID/Info : UTF-8 Plain Text
Language : English
Default : No
Forced : No

pb.wtf



Скачать Хуан - истребитель кубинских зомби через торрент http://pic.kartinco.top/images/6/knyv6.jpg Скачать фильм Хуан - истребитель кубинских зомби через торрент бесплантно в хорошем качестве Описание: Гавана переживает эпидемию зомби. 40-летний бездельник Хуан решил заработать на этом. Под девизом «Хуан избавит вас от тех, кого ... 8.8 10 5
Info! Серебряная раздача, засчитывается только 50% скачанного.
Торрент: Зарегистрирован [2014-06-17 01:43] · скачан: 59 раз
Статус: √ проверено
Размер: 4.93 GB
Как cкачать? Как скачать Хуан - истребитель кубинских зомби через торрент | qTorrent

% Раздел Тема Автор DL S | L
Фильмы (DVD фильмы) [ 6.22 GB ] Истребитель зомби / Хуан - истребитель кубинских зомби / Juan de los Muertos / Juan of the Dead [2011 DVD9] R5 voovaz Скачать
1 | 0

28-11-2019 20:33  

Отключить всю рекламу на сайте

17-06-2014 06:15 Хуан - истребитель кубинских зомби Скачать торрент  

ахахаха)))) Хуанита, истребительница зомби))))pb.wtf



18-06-2014 08:31 Хуан - истребитель кубинских зомби Скачать торрент  

даже смотреть боюсь........... pb.wtf



20-06-2014 15:01 Хуан - истребитель кубинских зомби Скачать торрент  

прикольный фильмецpb.wtf



    Дорогой пользователь! Огромная просьба, поблагодарите релизера, оцените раздачу и оставьте свои комментарий, если Вы скачали Хуан - истребитель кубинских зомби через торрент бесплатно! Внесите свою лепту в развитие PiratBit!
    Комментировать посты могут только пользователи прошедшие не сложную регистрацию
    Показать сообщения:    

    Хуан - истребитель кубинских зомби через торрент
    Скачать бесплатно Хуан - истребитель кубинских зомби
    Хуан - истребитель кубинских зомби скачать торрент
    Хуан - истребитель кубинских зомби смотреть онлайн
    Cкачать фильм Хуан - истребитель кубинских зомби бесплатно
    Хуан - истребитель кубинских зомби скачать торрент в хорошем качестве
    Хуан - истребитель кубинских зомби смотреть онлайн бесплатно в хорошем качестве


    Вы не можете начинать темы
    Вы не можете отвечать на сообщения
    Вы не можете редактировать свои сообщения
    Вы не можете удалять свои сообщения
    Вы не можете голосовать в опросах
    Вы не можете прикреплять файлы к сообщениям
    Вы можете скачивать файлы