Всегда рабочее зеркало без VPN и Proxy просто перед .vidak.icu напиши любое слово или цифру, Пример http://os2q.vidak.icu

MVO

2 сезон

1 сезон

1

1 сезон

iTunes

2 сезон

13

1 сезон

Распродажа

pack

Рекомендуем

Пиратка

30

ВАЖНО

RePack

MK11

RePack

jed

RePack

fifa19

RePack

RDR2

RePack

NEED FOR SPEED™ PAYBACK

Кинопоиск HD

6 сезон

 Острые козырьки 6 сезон

Все сериалы

все сериалы на PB.wtf

RePack

FAR CRY 5

Anonymous, нам критически не хватает 5601 руб. на оплату серверов и переферии за Апрель, помоги нам пожалуйста, вся надежда только на тебя. В благодарность мы отключим тебе всю рекламу на сайте!

×
  
Magnet ссылка

Звездная карта / Maps to the Stars (Дэвид Кроненберг / David Cronenberg) [2014, Канада, США, Германия, Франция, драма, HDRip, Авторский (одноголосый)[С.Визгунов] pb.wtf

Звездная карта через торрент pb.wtf

Размер: 1.37 GB | Добавлен: 7 лет 6 мес. назад | Торрент скачан:99 раз
Смотреть онлайн Звездная карта | Скачать    Ребята, помогите собрать деньги на оплату серверов!!!

23-10-2014 19:29 Звездная карта Скачать торрент  

Звездная карта / Maps to the Stars

Год выпуска: 2014
Страна: Канада, США, Германия, Франция
Жанр: драма
Продолжительность: 01:47:17
Перевод: Авторский (одноголосый)[С.Визгунов]
Субтитры: Нет
Режиссер: Дэвид Кроненберг / David Cronenberg
В ролях: Джулианна Мур (Havana Segrand), Миа Васиковска (Agatha Weiss), Джон Кьюсак (Dr. Stafford Weiss), Эван Бёрд (Benjie Weiss), Оливия Уильямс (Christina Weiss), Роберт Паттинсон (Jerome Fontana), Кьяра Гласко (Cammy), Сара Гадон (Clarice Taggart), Доун Гринхалг (Genie), Джонатан Уоттон (Sterl Carruth), Дженнифер Гибсон (Starla Gent), Горд Рэнд (Damien Javitz)
Описание:
Место действия - два голливудских дома. В одном живет стареющая актриса, которая надеется сыграть роль собственной давно погибшей матери - легенды черно-белого кино. Другой особняк - резиденция сверхуспешного психотерапевта, его жены и их сына - 13-летнего миллионера, наркомана и звезды. В оба дома проникает девушка из Флориды, которая подружилась в твиттере с Кэрри Фишер и надеется с ее помощью покорить Лос-Анджелес.
Рейтинг
kinopoisk.ru: 6.857 (249)
imdb.com: 6.50 (5898)
MPAA: R - Лицам до 17 лет обязательно присутствие взрослого
Качество: HDRip
Формат: AVI
Видео кодек: XviD
Аудио кодек:AC3
Видео: XviD, 720x384 (1.875), 1365 kbps, 25 fps, 0,198 bpp
Аудио: AC3 / 5.1 / 48 kHz / 448 kbps / 16 bit

General
Complete name : D:\Торенты\Zvezdnaya.Karta.2014.P1.HDRip.1400MB.avi
Format : AVI
Format/Info : Audio Video Interleave
File size : 1.37 GiB
Duration : 1h 47mn
Overall bit rate : 1 823 Kbps
Writing application : VirtualDubMod 1.5.10.2 (build 2540/release)
Writing library : VirtualDubMod build 2540/release

Video
ID : 0
Format : MPEG-4 Visual
Format profile : Advanced Simple@L5
Format settings, BVOP : 2
Format settings, QPel : No
Format settings, GMC : No warppoints
Format settings, Matrix : Default (MPEG)
Codec ID : XVID
Codec ID/Hint : XviD
Duration : 1h 47mn
Bit rate : 1 366 Kbps
Width : 720 pixels
Height : 384 pixels
Display aspect ratio : 1.875
Frame rate : 25.000 fps
Color space : YUV
Chroma subsampling : 4:2:0
Bit depth : 8 bits
Scan type : Progressive
Compression mode : Lossy
Bits/(Pixel*Frame) : 0.198
Stream size : 1.02 GiB (75%)
Writing library : XviD 1.2.1 (UTC 2008-12-04)

Audio
ID : 1
Format : AC-3
Format/Info : Audio Coding 3
Mode extension : CM (complete main)
Codec ID : 2000
Duration : 1h 47mn
Bit rate mode : Constant
Bit rate : 448 Kbps
Channel(s) : 6 channels
Channel positions : Front: L C R, Side: L R, LFE
Sampling rate : 48.0 KHz
Bit depth : 16 bits
Compression mode : Lossy
Stream size : 344 MiB (25%)
Alignment : Split accross interleaves
Interleave, duration : 40 ms (1.00 video frame)
Interleave, preload duration : 500 ms
pb.wtf



Скачать Звездная карта через торрент https://pic1.kartinco.top/images/71/gfllo.jpg Скачать, смотреть онлайн Звездная карта бесплантно в хорошем качестве Описание: Место действия - два голливудских дома. В одном живет стареющая актриса, которая надеется сыграть роль собственной давно погибшей ... 9.6 10 7
Торрент: Зарегистрирован [2014-10-23 19:29] · скачан: 99 раз
Статус: √ проверено
Размер: 1.37 GB
Как cкачать? Как скачать Звездная карта через торрент | UTorrent

% Раздел Тема Автор DL S | L
Фильмы 2014 [DVDrip, WEB-DLRip, HDrip] [ 2.19 GB ] Звездная карта / Maps to the Stars [2014 HDRip многоголосый " R5"] coc900 Скачать
1 | 0
Фильмы 2014 [DVDrip, WEB-DLRip, HDrip] [ 1.36 GB ] Звездная карта / Maps to the Stars [2014 Германия BDRip] MVO / Ворон Скачать
1 | 0
Фильмы с авторской озвучкой [ 10.71 GB ] Звёздная карта / Maps to the stars [2014 BDRip 1080p] AVO msltel Скачать
1 | 0
Фильмы с авторской озвучкой [ 3.64 GB ] Звёздная карта / Maps to the stars [2014 BDRip 720p] AVO msltel Скачать
1 | 0
Фильмы с авторской озвучкой [ 6.51 GB ] Звездная карта / Maps to the Stars [2014 BDRip 720p Авторский ] кэп Скачать
1 | 0

28-11-2019 20:33  

Отключить всю рекламу на сайте

23-10-2014 21:24 Звездная карта Скачать торрент  

кто посмотрел? че скажите?pb.wtf



    Дорогой пользователь! Огромная просьба, поблагодарите релизера, оцените раздачу и оставьте свои комментарий, если Вы скачали Звездная карта через торрент бесплатно!
    Комментировать посты могут только пользователи прошедшие не сложную регистрацию
    Показать сообщения:    

    Звездная карта через торрент
    Скачать бесплатно Звездная карта
    Звездная карта скачать торрент
    Звездная карта смотреть онлайн
    Cкачать фильм Звездная карта бесплатно
    Звездная карта скачать торрент в хорошем качестве
    Звездная карта смотреть онлайн бесплатно в хорошем качестве


    Вы не можете начинать темы
    Вы не можете отвечать на сообщения
    Вы не можете редактировать свои сообщения
    Вы не можете удалять свои сообщения
    Вы не можете голосовать в опросах
    Вы не можете прикреплять файлы к сообщениям
    Вы можете скачивать файлы