Ссылка на приватное зеркало нашего сайта всего за 1$. Внимание количество ограничено!!!

2 сезон

iTunes

1 сезон

1

2 сезон

2 сезон

iTunes

1 сезон

RePack

30

Ultimate

ВАЖНО

ИГРА 18+

pack

RePack

MK11
pack

Забери бонус

RePack

jed

!!Акция!!

Alien_Rage

RePack

fifa19

RePack

Assassins Creed: Odyssey

RePack

NEED FOR SPEED™ PAYBACK

4 сезон

9 сезон

Бесстыжие 9 сезон

Все сериалы

все сериалы на PB.wtf

RePack

FAR CRY 5
  

Интервью / The Interview (Эван Голдберг, Сет Роген) [2014, боевик, комедия, BDRip 1080p] DVO [Студия Пиратского Дубляжа] pb.wtf

Интервью через торрент pb.wtf

Размер: 8.24 GB | Добавлен: 5 лет 10 мес. назад | Торрент скачан:336 раз
Скачать  

31-01-2015 07:11 Интервью Скачать торрент  


Интервью / The Interview

Год выпуска: 2014
Страна: США, Columbia Pictures, LStar Capital, Point Grey Pictures
Жанр: боевик, комедия
Продолжительность: 01:52:10

Перевод: Любительский двухголосый] [Студия Пиратского Дубляжа]
Субтитры: нет



В ролях:
Джеймс Франко, Сет Роген, Лиззи Каплан, Рэндолл Парк, Диана Банг, Тимоти С. Саймонс, Риз Александр, Джеймс Йи, Пол Бай, Джофф Густафссон




Режиссёр:
Эван Голдберг, Сет Роген



Описание:
Дэйв - фантастически талантливый журналист популярного ток-шоу, продюсирует которое его лучший друг Аарон. Друзья, давно мечтавшие сделать что-то по-настоящему значимое, решают взять интервью у северокорейского диктатора Ким Чен Ына. Вскоре к ним обращается ЦРУ, которое просит наших героев ни много ни мало - убить Кима. Так начинается веселая история о двух наименее квалифицированных наемных убийцах в истории человечества......


Качество: BDRip 1080p
Формат: MKV
Видео кодек: AVC
Аудио кодек: AC3
Видео: AVC, 1920x808 (2.35:1), 23.976 fps, 8 624 Kbps (0.232 bit/pixel)
Аудио1: AC3, 2 ch, 384 Кбит/с 48,0 КГц
Аудио2: English: DTS, 1510 kb/s (6 ch) 48,0 КГц


Общее
Уникальный идентификатор : 190105432738660533442689601373317344529 (0x8F04F97C1F579F1EA36E187106FBAD11)
Полное имя : D:\Торенты\Interviyu.2014.P.BDRip.1080p.mkv
Формат : Matroska
Версия формата : Version 4 / Version 2
Размер файла : 8,24 Гбайт
Продолжительность : 1 ч. 52 м.
Общий поток : 10,5 Мбит/сек
Дата кодирования : UTC 2015-01-30 23:00:30
Программа кодирования : mkvmerge v6.9.1 ('Blue Panther') 64bit built on Apr 18 2014 18:23:38
Библиотека кодирования : libebml v1.3.0 + libmatroska v1.4.1

Видео
Идентификатор : 1
Формат : AVC
Формат/Информация : Advanced Video Codec
Профиль формата : High@L4.1
Параметр CABAC формата : Да
Параметр ReFrames формата : 5 кадров
Идентификатор кодека : V_MPEG4/ISO/AVC
Продолжительность : 1 ч. 52 м.
Битрейт : 8624 Кбит/сек
Ширина : 1920 пикселей
Высота : 808 пикселей
Соотношение сторон : 2,40:1
Режим частоты кадров : Постоянный
Частота кадров : 23,976 кадра/сек
Цветовое пространство : YUV
Субдискретизация насыщенности : 4:2:0
Битовая глубина : 8 бит
Тип развёртки : Прогрессивная
Бит/(Пиксели*Кадры) : 0.232
Размер потока : 6,60 Гбайт (80%)
Библиотека кодирования : x264 core 144 r2525 40bb568
Настройки программы : cabac=1 / ref=5 / deblock=1:0:0 / analyse=0x3:0x133 / me=umh / subme=7 / psy=1 / psy_rd=1.00:0.00 / mixed_ref=1 / me_range=16 / chroma_me=1 / trellis=1 / 8x8dct=1 / cqm=0 / deadzone=21,11 / fast_pskip=0 / chroma_qp_offset=-2 / threads=18 / lookahead_threads=3 / sliced_threads=0 / nr=0 / decimate=1 / interlaced=0 / bluray_compat=0 / constrained_intra=0 / bframes=3 / b_pyramid=2 / b_adapt=1 / b_bias=0 / direct=1 / weightb=1 / open_gop=0 / weightp=2 / keyint=250 / keyint_min=23 / scenecut=40 / intra_refresh=0 / rc_lookahead=40 / rc=2pass / mbtree=1 / bitrate=8624 / ratetol=1.0 / qcomp=0.60 / qpmin=0 / qpmax=69 / qpstep=4 / cplxblur=20.0 / qblur=0.5 / ip_ratio=1.40 / aq=1:1.00
Язык : English
Default : Да
Forced : Нет

Аудио #1
Идентификатор : 2
Формат : AC-3
Формат/Информация : Audio Coding 3
Расширение режима : CM (complete main)
Параметр Endianness формата : Big
Идентификатор кодека : A_AC3
Продолжительность : 1 ч. 52 м.
Вид битрейта : Постоянный
Битрейт : 384 Кбит/сек
Каналы : 2 канала
Расположение каналов : Front: L R
Частота : 48,0 КГц
Битовая глубина : 16 бит
Метод сжатия : С потерями
Размер потока : 308 Мбайт (4%)
Язык : Russian
Default : Да
Forced : Нет

Аудио #2
Идентификатор : 3
Формат : DTS
Формат/Информация : Digital Theater Systems
Режим : 16
Параметр Endianness формата : Big
Идентификатор кодека : A_DTS
Продолжительность : 1 ч. 52 м.
Вид битрейта : Постоянный
Битрейт : 1509 Кбит/сек
Каналы : 6 каналов
Расположение каналов : Front: L C R, Side: L R, LFE
Частота : 48,0 КГц
Битовая глубина : 24 бит
Метод сжатия : С потерями
Размер потока : 1,18 Гбайт (14%)
Язык : English
Default : Нет
Forced : Нет

Меню
00:00:00.000 : en:00:00:00.000
00:06:44.279 : en:00:06:44.279
00:13:59.881 : en:00:13:59.881
00:20:27.810 : en:00:20:27.810
00:27:12.172 : en:00:27:12.172
00:35:29.961 : en:00:35:29.961
00:42:34.761 : en:00:42:34.761
00:51:50.316 : en:00:51:50.316
01:02:02.344 : en:01:02:02.344
01:11:23.446 : en:01:11:23.446
01:18:32.374 : en:01:18:32.374
01:26:38.110 : en:01:26:38.110
01:33:25.725 : en:01:33:25.725
01:37:49.072 : en:01:37:49.072
01:41:44.056 : en:01:41:44.056
01:46:18.706 : en:01:46:18.706

[/code]
pb.wtf



Скачать Интервью через торрент http://i68.fastpic.ru/big/2014/1229/19/f1d7eb6c175ecc3cb8d759b0ba14c419.png Скачать фильм Интервью через торрент бесплантно в хорошем качестве Описание:Дэйв - фантастически талантливый журналист популярного ток-шоу, продюсирует которое его лучший друг Аарон. Друзья, давно мечтавшие ... 8.7 10 7
Торрент: Зарегистрирован [2015-01-31 07:11] · скачан: 336 раз
Статус: T временная
Размер: 8.24 GB
Как cкачать? Как скачать Интервью через торрент | qTorrent

% Раздел Тема Автор DL S | L
? Оформление раздач (Кино, Видео и ТВ) [ 3.49 GB ] Интервью с вампиром / Interview with the Vampire: The Vampire Chronicles [1994 BDRip 720p / 60 FPS ] alien2015 Скачать
1 | 0
Фильмы [HD 720p, 1080p] (Хороший звук DUB, MVO) [ 18.65 GB ] Интервью с вампиром / Interview with the Vampire: The Vampire Chronicles [1994 BDRip 1080p by msltel] 2хDUB 2хDVO 4хAVO msltel Скачать
1 | 0
Фильмы [HD 720p, 1080p] (Хороший звук DUB, MVO) [ 8.4 GB ] Интервью с вампиром / Interview with the Vampire: The Vampire Chronicles [1994 BDRip 720p by msltel] 2хDUB 2хDVO 4хAVO msltel Скачать
1 | 0
R.G. Resident & PiratVoice - Фильмы, Видео [ 2.17 GB ] Интервью с вампиром / Interview with the Vampire: The Vampire Chronicles [1994 BDRip-AVC ] от R.G. Resident Ворон Скачать
3 | 0
Фильмы (Blu-ray, BD-Remux, HDDVD) [ 19.94 GB ] Интервью с вампиром / Interview with the Vampire: The Vampire Chronicles [1994 BD Remux +DVO+AVO] Ворон Скачать
1 | 0
Фильмы (Blu-ray, BD-Remux, HDDVD) [ 33.58 GB ] Интервью с вампиром / Interview with the Vampire: The Vampire Chronicles [1994 Blu-ray CEE 1080p] Russian Mafia Скачать
1 | 0
Порно фильмы с сюжетом [ 897 MB ] Это не Интервью Это Порно Пародия / This Ain't The Interview XXX This Is A Parody [2015 Comedy Feature Parody DVDRip Оригинал] Pir@tya2010 Скачать
1 | 0

28-11-2019 20:33  

Отключить всю рекламу на сайте

31-01-2015 07:14 Интервью Скачать торрент  

Как фильм ?pb.wtf



31-01-2015 08:10 Интервью Скачать торрент  

Северная Корея уже снимает как 2е северокорейских репортера вырезают весь белый дом, а Обаму носилуя, захлебнулся...Вот будет комедия то я ржунимагу уже)))pb.wtf



31-01-2015 09:57 Интервью Скачать торрент  

operokunp писал(а):

Северная Корея уже снимает как 2е северокорейских репортера вырезают весь белый дом, а Обаму носилуя, захлебнулся...Вот будет комедия то я ржунимагу уже)))

больной ты, и воображение твоё больное, лечись... !!pb.wtf



31-01-2015 13:13 Интервью Скачать торрент  

riv1 писал(а):

Как фильм ?

ну как сказать есть пару моментов прикольных. а так, в целом ерунда. обычная черная комедия. только с северокорейским душком.pb.wtf



31-01-2015 16:39 Интервью Скачать торрент  

san_elt писал(а):

riv1 писал(а):

Как фильм ?

ну как сказать есть пару моментов прикольных. а так, в целом ерунда. обычная черная комедия. только с северокорейским душком.

собачатину не жрут тут?pb.wtf



31-01-2015 16:44 Интервью Скачать торрент  


собачатину не жрут тут?
только кошатинуpb.wtf



    Дорогой пользователь! Огромная просьба, поблагодарите релизера, оцените раздачу и оставьте свои комментарий, если Вы скачали Интервью через торрент бесплатно! Внесите свою лепту в развитие PiratBit!
    Комментировать посты могут только пользователи прошедшие не сложную регистрацию
    Показать сообщения:    

    Интервью через торрент
    Скачать бесплатно Интервью
    Интервью скачать торрент
    Интервью смотреть онлайн
    Cкачать фильм Интервью бесплатно
    Интервью скачать торрент в хорошем качестве
    Интервью смотреть онлайн бесплатно в хорошем качестве


    Вы не можете начинать темы
    Вы не можете отвечать на сообщения
    Вы не можете редактировать свои сообщения
    Вы не можете удалять свои сообщения
    Вы не можете голосовать в опросах
    Вы не можете прикреплять файлы к сообщениям
    Вы можете скачивать файлы