Всегда рабочее зеркало без VPN и Proxy просто перед .vidak.icu напиши любое слово или цифру, Пример http://f72m.vidak.icu

MVO

Лицензия

1 сезон

1

1 сезон

iTunes

1 сезон

13

1 сезон

Deluxe

pack

Рекомендуем

Пиратка

30

ВАЖНО

RePack

MK11

RePack

jed

RePack

fifa19

RePack

RDR2

RePack

NEED FOR SPEED™ PAYBACK

Кинопоиск HD

6 сезон

 Острые козырьки 6 сезон

Все сериалы

все сериалы на PB.wtf

RePack

FAR CRY 5
  
Magnet ссылка

Рейд 2 / The Raid 2: Berandal (Гарет Эванс / Gareth Evans) [2014, Криминал, триллер, боевик, BDRip-AVC от potroks] [USA Transfer] DUB Лицензия pb.wtf

Рейд 2 через торрент pb.wtf

Раздают: 1 [ 0 KB/s ]
Размер: 2.92 GB | Добавлен: 7 лет назад | Торрент скачан:1119 раз
Смотреть онлайн Рейд 2 | Скачать    Ребята, помогите собрать деньги на оплату серверов!!!

29-06-2015 16:58 Рейд 2 Скачать торрент  

Рейд 2 / The Raid 2: Berandal
Год выпуска: 2014
Страна: Индонезия, США / Pt. Merantau Films, XYZ Films
Жанр: Криминал, триллер, боевик
Продолжительность: 02:30:28
Перевод: Дубляж [BD RUS]
Субтитры: Русские (x2), английские (Full + SDH + SDH-Colored)

Режиссер: Гарет Эванс / Gareth Evans

В ролях: Ико Ювайс, Яян Рухьян, Рэйден Интегра, Дони Аламсях, Рюхэй Мацуда, Джули Эстелль, Кадзуки Китамура, Тио Пакусодево, Кэнити Эндо, Марша Тимоти

Описание: Из трех полицейских, выбравшихся из кровавого ада первой части, в живых остается только офицер Рама. Уволившись из спецназа, он пробует начать жизнь заново, но вскоре прошлое жестко напоминает о себе — преступники убивают его брата. Чтобы отомстить, он внедряется в мощный криминальный синдикат, где быстро поднимается до самых вершин бандитской иерархии. Врагов здесь еще больше, и каждый неверный шаг может оказаться последним. Здесь нет ни близких, ни друзей, ни любви, ни тоски, ни жалости!



Качество: BDRip-AVC
Формат: MKV
Видео кодек: H.264
Аудио кодек: AC3
Видео: 1044x434 (2,40:1), 23.976 fps, 1877 kbps, 0.173 bit/pixel
Аудио#1: 48 kHz, AC3 Dolby Digital, 3/2 (L,C,R,l,r) + LFE ch, 448.00 kbps | RUS
Аудио#2: 48 kHz, AC3 Dolby Digital, 3/2 (L,C,R,l,r) + LFE ch, 448.00 kbps | ENG

Релиз группы:
Автор рипа: potroks

Общее
Уникальный идентификатор : 219844856418442402055961310903036368140 (0xA564944714379A9F8AF55925A5ED550C)
Полное имя : Reyd.2.2014.DUAL.BDRip.x264.-HELLYWOOD.mkv
Формат : Matroska
Версия формата : Version 4 / Version 2
Размер файла : 2,92 Гбайт
Продолжительность : 2 ч. 30 м.
Общий поток : 2775 Кбит/сек
Название фильма : The Raid 2: Berandal (2014) - HELLYWOOD
Дата кодирования : UTC 2015-06-28 12:36:47
Программа кодирования : mkvmerge v5.9.0 ('On The Loose') built on Dec 15 2012 16:39:58
Библиотека кодирования : libebml v1.3.0 + libmatroska v1.4.0

Видео
Идентификатор : 1
Формат : AVC
Формат/Информация : Advanced Video Codec
Профиль формата : High@L4.1
Параметр CABAC формата : Да
Параметр ReFrames формата : 11 кадров
Идентификатор кодека : V_MPEG4/ISO/AVC
Продолжительность : 2 ч. 30 м.
Битрейт : 1877 Кбит/сек
Ширина : 1044 пикселя
Высота : 434 пикселя
Соотношение сторон : 2,40:1
Режим частоты кадров : Постоянный
Частота кадров : 23,976 кадра/сек
Цветовое пространство : YUV
Субдискретизация насыщенности : 4:2:0
Битовая глубина : 8 бит
Тип развёртки : Прогрессивная
Бит/(Пиксели*Кадры) : 0.173
Размер потока : 1,92 Гбайт (66%)
Заголовок : potroks
Библиотека кодирования : x264 core 130 r2273 b3065e6
Настройки программы : cabac=1 / ref=11 / deblock=1:-2:-2 / analyse=0x3:0x133 / me=umh / subme=11 / psy=1 / psy_rd=1.00:0.03 / mixed_ref=1 / me_range=48 / chroma_me=1 / trellis=2 / 8x8dct=1 / cqm=0 / deadzone=21,11 / fast_pskip=0 / chroma_qp_offset=-3 / threads=9 / lookahead_threads=6 / sliced_threads=0 / nr=0 / decimate=0 / interlaced=0 / bluray_compat=0 / constrained_intra=0 / bframes=12 / b_pyramid=2 / b_adapt=2 / b_bias=0 / direct=3 / weightb=1 / open_gop=0 / weightp=2 / keyint=250 / keyint_min=23 / scenecut=40 / intra_refresh=0 / rc_lookahead=60 / rc=2pass / mbtree=0 / bitrate=1877 / ratetol=1.0 / qcomp=0.70 / qpmin=0 / qpmax=69 / qpstep=4 / cplxblur=20.0 / qblur=0.5 / vbv_maxrate=50000 / vbv_bufsize=62500 / nal_hrd=none / ip_ratio=1.35 / pb_ratio=1.25 / aq=1:0.80
Язык : English
Default : Да
Forced : Нет

Аудио #1
Идентификатор : 2
Формат : AC-3
Формат/Информация : Audio Coding 3
Расширение режима : CM (complete main)
Параметр Endianness формата : Big
Идентификатор кодека : A_AC3
Продолжительность : 2 ч. 30 м.
Вид битрейта : Постоянный
Битрейт : 448 Кбит/сек
Каналы : 6 каналов
Расположение каналов : Front: L C R, Side: L R, LFE
Частота : 48,0 КГц
Метод сжатия : С потерями
Задержка видео : 10 мс.
Размер потока : 482 Мбайт (16%)
Заголовок : Dub | DD 5.1 @ 448 kbps - Blu-Ray RUS
Язык : Russian
Default : Да
Forced : Нет

Аудио #2
Идентификатор : 3
Формат : AC-3
Формат/Информация : Audio Coding 3
Расширение режима : CM (complete main)
Параметр Endianness формата : Big
Идентификатор кодека : A_AC3
Продолжительность : 2 ч. 30 м.
Вид битрейта : Постоянный
Битрейт : 448 Кбит/сек
Каналы : 6 каналов
Расположение каналов : Front: L C R, Side: L R, LFE
Частота : 48,0 КГц
Метод сжатия : С потерями
Размер потока : 482 Мбайт (16%)
Заголовок : Original | DD 5.1 @ 448 kbps
Язык : English
Default : Нет
Forced : Нет

Текст #1
Идентификатор : 4
Формат : UTF-8
Идентификатор кодека : S_TEXT/UTF8
Идентификатор кодека/Информация : UTF-8 Plain Text
Заголовок : Дэн 107miller
Язык : Russian
Default : Нет
Forced : Нет

Текст #2
Идентификатор : 5
Формат : UTF-8
Идентификатор кодека : S_TEXT/UTF8
Идентификатор кодека/Информация : UTF-8 Plain Text
Заголовок : А.Матвеев
Язык : Russian
Default : Нет
Forced : Нет

Текст #3
Идентификатор : 6
Формат : UTF-8
Идентификатор кодека : S_TEXT/UTF8
Идентификатор кодека/Информация : UTF-8 Plain Text
Заголовок : Full
Язык : English
Default : Нет
Forced : Нет

Текст #4
Идентификатор : 7
Формат : UTF-8
Идентификатор кодека : S_TEXT/UTF8
Идентификатор кодека/Информация : UTF-8 Plain Text
Заголовок : SDH
Язык : English
Default : Нет
Forced : Нет

Текст #5
Идентификатор : 8
Формат : UTF-8
Идентификатор кодека : S_TEXT/UTF8
Идентификатор кодека/Информация : UTF-8 Plain Text
Заголовок : SDH-Colored
Язык : English
Default : Нет
Forced : Нет

Меню
00:00:00.000 : en:(01)00:00:00:000
00:08:02.315 : en:(02)00:08:02:315
00:14:03.217 : en:(03)00:14:03:217
00:21:08.892 : en:(04)00:21:08:892
00:31:45.486 : en:(05)00:31:45:486
00:42:22.122 : en:(06)00:42:22:122
00:50:55.177 : en:(07)00:50:55:177
01:01:58.423 : en:(08)01:01:58:423
01:11:49.763 : en:(09)01:11:49:763
01:24:47.165 : en:(10)01:24:47:165
01:36:31.994 : en:(11)01:36:31:994
01:44:18.752 : en:(12)01:44:18:752
01:48:31.713 : en:(13)01:48:31:713
01:57:20.283 : en:(14)01:57:20:283
02:05:59.093 : en:(15)02:05:59:093
02:20:02.894 : en:(16)02:20:02:894

pb.wtf



Скачать Рейд 2 через торрент https://pic.kartinco.top/images/11/6eczp.jpg Скачать, смотреть онлайн Рейд 2 бесплантно в хорошем качестве Описание: Из трех полицейских, выбравшихся из кровавого ада первой части, в живых остается только офицер Рама. Уволившись из спецназа, он ... 9.4 10 26
Info! Золотая раздача, скачанное не засчитывается.
Торрент: Зарегистрирован [2015-06-29 16:58] · скачан: 1 119 раз
Статус: √ проверено
Размер: 2.92 GB
Как cкачать? Как скачать Рейд 2 через торрент | UTorrent

28-11-2019 20:33  

Отключить всю рекламу на сайте

29-06-2015 19:10 Рейд 2 Скачать торрент  

Не смотрел первую часть, но вторая по описанию понравилась. Хочу вот скачать и посмотреть. Или смотря вторую часть ничего не поймешь, так как первую не видел ?pb.wtf



29-06-2015 19:13 Рейд 2 Скачать торрент  

всё поймёш pb.wtf



29-06-2015 19:31 Рейд 2 Скачать торрент  

Porki66 писал(а):

Не смотрел первую часть, но вторая по описанию понравилась. Хочу вот скачать и посмотреть. Или смотря вторую часть ничего не поймешь, так как первую не видел ?

да все понятно будет) но первая часть от души фильм) глянь)pb.wtf



    Дорогой пользователь! Огромная просьба, поблагодарите релизера, оцените раздачу и оставьте свои комментарий, если Вы скачали Рейд 2 через торрент бесплатно!
    Комментировать посты могут только пользователи прошедшие не сложную регистрацию
    Показать сообщения:    

    Рейд 2 через торрент
    Скачать бесплатно Рейд 2
    Рейд 2 скачать торрент
    Рейд 2 смотреть онлайн
    Cкачать фильм Рейд 2 бесплатно
    Рейд 2 скачать торрент в хорошем качестве
    Рейд 2 смотреть онлайн бесплатно в хорошем качестве


    Вы не можете начинать темы
    Вы не можете отвечать на сообщения
    Вы не можете редактировать свои сообщения
    Вы не можете удалять свои сообщения
    Вы не можете голосовать в опросах
    Вы не можете прикреплять файлы к сообщениям
    Вы можете скачивать файлы