Ссылка на приватное зеркало всего за 1$. Внимание количество ограничено!!!

OK

1+1

iTunes

мы

OK

1

WEB-DLRip

Джокер

Пифагор

Ведьмак / The Witcher сериал

Лицензия

ПШазам

ОК

Оно 2

iTunes

30
pack

Вам бонус

ВАЖНО

!!Акция!!

Alien_RageХит недели

RePack

Resident Evil 21

ИГРА 18+

pack

RePack

jed

!!Акция!!

Alien_Rage

RePack

fifa19

RePack

Assassins Creed: Odyssey

RePack

NEED FOR SPEED™ PAYBACK

4 сезон

9 сезон

Бесстыжие 9 сезон

Все сериалы

все сериалы на PB.wtf

RePack

FAR CRY 5
  

Единичка (Кирилл Белевич ) [2015, военный, драма, DVD9] pb.wtf

Скачать  

27-06-2015 15:01 Единичка Скачать торрент  


Единичка


ИНФОРМАЦИЯ:
Год выпуска: 2015
Страна: Россия
Жанр: военный, драма
Продолжительность: 01:44:55
Перевод: Не требуется
Режиссер: Кирилл Белевич

В Ролях:


Андрей Мерзликин (Финогенов), Илья Коробко (Егоров), Анна Прус (Ева), Арина Борисова (Надя), Александр Вершинин (Жилкин), Михаил Евланов (Лютиков), Микаэл Джанибекян (Геворкян), Сергей Габриэлян (дядя Яша), Добрыня Белевич-Оболенский (Коля), Якуб Здруйковский (Анджей), Анна Закеева (Катя), Марчин Стец (Романовский)

Описание:
Август 1944-го. Советские войска продолжают наступление в Восточной Польше. Подразделение старшего лейтенанта Егорова получает задание - удержать мост, через который планируется переправа частей Советской Армии. Прибыв на позицию, бойцы обнаруживают разрушенный монастырь, а в нем - группу глухих сирот с воспитательницей Евой.
Утратив веру, она нашла смысл жизни в спасении немощных и беззащитных детей. Лейтенант Егоров оказывается перед сложным выбором - выполняя приказ командования, он будет вынужден поставить под угрозу жизнь маленьких поляков. Артиллеристы изо всех сил стараются не допустить смерти детей...


ТЕХ.ДАННЫЕ:
Качество: DVD9
Формат: MPEG-PS
Видео кодек: MPEG-2 Video
Аудио кодек: AC3
Видео: MPEG-2 Video, 720x576 (16:9), 6977 kbps, 25 fps, 0,673 bpp
Аудио: AC3 / 5.1 / 48 kHz / 448 kbps / 16 bit
Навигация по главам: есть



Title: Единичка DVD
Size: 5.69 Gb ( 5 970 052,00 KBytes ) - DVD-9
Enabled regions: 1, 2, 3, 4, 5, 6, 7, 8

VTS_01 :
Play Length: 00:00:05
Video: PAL 4:3 (720x576) VBR

VTS_02 :
Play Length: 00:00:07
Video: PAL 16:9 (720x576) VBR, Auto Letterboxed

VTS_03 :
Play Length: 00:02:08
Video: PAL 16:9 (720x576) VBR, Auto Letterboxed
Audio:
Not specified (Dolby AC3, 2 ch)
Subtitles:
Not specified

VTS_04 :
Play Length: 01:44:55
Video: PAL 16:9 (720x576) VBR, Auto Letterboxed
Audio:
Russian (Dolby AC3, 6 ch)

* Menus Information *

VIDEO_TS Menu
Video:
PAL 16:9 (720x576) VBR
Auto Pan&Scan, Auto Letterboxed
English Language Unit :
Title Menu

VTS_01 Menu
Video:
PAL 16:9 (720x576) VBR
Auto Letterboxed
Audio:
Not specified (Dolby AC3, 2 ch)
English Language Unit :
Root Menu

VTS_02 Menu
Video:
PAL 4:3 (720x576) VBR
English Language Unit :
Root Menu

VTS_03 Menu
Video:
PAL 4:3 (720x576) VBR
English Language Unit :
Root Menu

VTS_04 Menu
Video:
PAL 4:3 (720x576) VBR
English Language Unit :
Root Menu

Audio #1: AC3, 3/2 (L,C,R,SL,SR)+LFE ch, 448 kbps, Delay 0 mSec

Код:

General
Complete name                            : D:\Торенты\Edini4ka.2015.O.DVD-9\VIDEO_TS\VTS_04_1.VOB
Format                                   : MPEG-PS
File size                                : 1 024 MiB
Duration                                 : 18mn 53s
Overall bit rate mode                    : Variable
Overall bit rate                         : 7 576 Kbps

Video
ID                                       : 224 (0xE0)
Format                                   : MPEG Video
Format version                           : Version 2
Format profile                           : Main@Main
Format settings, BVOP                    : Yes
Format settings, Matrix                  : Default
Format settings, GOP                     : M=3, N=12
Duration                                 : 18mn 53s
Bit rate mode                            : Variable
Bit rate                                 : 6 977 Kbps
Maximum bit rate                         : 9 000 Kbps
Width                                    : 720 pixels
Height                                   : 576 pixels
Display aspect ratio                     : 16:9
Frame rate                               : 25.000 fps
Standard                                 : PAL
Color space                              : YUV
Chroma subsampling                       : 4:2:0
Bit depth                                : 8 bits
Scan type                                : Progressive
Compression mode                         : Lossy
Bits/(Pixel*Frame)                       : 0.673
Stream size                              : 943 MiB (92%)

Audio
ID                                       : 189 (0xBD)-128 (0x80)
Format                                   : AC-3
Format/Info                              : Audio Coding 3
Mode extension                           : CM (complete main)
Muxing mode                              : DVD-Video
Duration                                 : 18mn 53s
Bit rate mode                            : Constant
Bit rate                                 : 448 Kbps
Channel(s)                               : 6 channels
Channel positions                        : Front: L C R, Side: L R, LFE
Sampling rate                            : 48.0 KHz
Bit depth                                : 16 bits
Compression mode                         : Lossy
Stream size                              : 60.5 MiB (6%)

Menu

Скриншоты:
скриншот   скриншот   скриншот  


© Оформление by Ворон
pb.wtf
!Ворон писал(а):

Обновлено. Полный фильм с эпилогом.



Скачать
Чтобы иметь возможность скачивать с Торрент Трекера, нужно Зарегистрироваться

Как скачивать  ·  Рейтинг и ограничения



Последний раз редактировалось: Ворон (2015-06-27 19:23), всего редактировалось 1 раз

28-11-2019 20:33  

Отключить всю рекламу на сайте

27-06-2015 18:57 Единичка Скачать торрент  

Отличный фильм, музыку бы узнать, которая играет в сражениях, грустная такая.pb.wtf



06-07-2015 00:58 Единичка Скачать торрент  

фильм супер про наших дедов и пра дидов.а поляки как были гавнюки против русских так и остались гавнюками по сей день. yes :film: :shoot2: :hunter: pb.wtf



16-07-2015 19:26 Единичка Скачать торрент  

да фильм класс спасибо воронpb.wtf



15-01-2020 11:22 Единичка Скачать торрент  

на раздачу ещё встал бы ктоpb.wtf



    Дорогой пользователь! Огромная просьба, поблагодарите релизера, оцените раздачу и оставьте свои комментарий, если Вы скачали Единичка через торрент бесплатно! Внесите свою лепту в развитие PiratBit!
    Комментировать посты могут только пользователи прошедшие не сложную регистрацию
    Показать сообщения:    

    Единичка через торрент
    Скачать бесплатно Единичка
    Единичка скачать торрент
    Единичка смотреть онлайн
    Cкачать фильм Единичка бесплатно
    Единичка скачать торрент в хорошем качестве
    Единичка смотреть онлайн бесплатно в хорошем качестве


    Вы не можете начинать темы
    Вы не можете отвечать на сообщения
    Вы не можете редактировать свои сообщения
    Вы не можете удалять свои сообщения
    Вы не можете голосовать в опросах
    Вы не можете прикреплять файлы к сообщениям
    Вы не можете скачивать файлы