Ссылка на приватное зеркало нашего сайта всего за 1$. Внимание количество ограничено!!!

2 сезон

iTunes

1 сезон

1

2 сезон

2 сезон

iTunes

1 сезон

RePack

30

Ultimate

ВАЖНО

ИГРА 18+

pack

RePack

MK11
pack

Забери бонус

RePack

jed

!!Акция!!

Alien_Rage

RePack

fifa19

RePack

Assassins Creed: Odyssey

RePack

NEED FOR SPEED™ PAYBACK

4 сезон

9 сезон

Бесстыжие 9 сезон

Все сериалы

все сериалы на PB.wtf

RePack

FAR CRY 5
  

Короли улиц 2 / Street Kings 2: Motor City (Unrated) (Крис Фишер / Chris Fisher) [2011, триллер, драма, криминал, BDRip 1080p от _denis_100] MVO pb.wtf

Короли улиц 2 через торрент pb.wtf

Размер: 7.76 GB | Добавлен: 5 лет 4 мес. назад | Торрент скачан:48 раз
Скачать  

20-07-2015 13:18 Короли улиц 2 Скачать торрент  

Короли улиц 2 / Street Kings 2: Motor City (Unrated)


Год выпуска: 2011
Страна: США
Жанр: триллер, драма, криминал
Продолжительность: 01:32:22
Перевод: Профессиональный многоголосый [Лицензия]
Субтитры: русские, английские
Режиссер: Крис Фишер
В ролях: Рэй Лиотта , Шон Хэтоси , Скотт Норман , Клифтон Пауэлл , Кевин Чэпмен , Инбар Лави , Шарлотта Росс , Стефани Коттон , Линда Бостон , Кори Эмануэл Уилсон , Джек Мур , Тирен Джеймс
Описание:
Детройтский детектив Марти Кингстон - лидер полицейских под прикрытием, которые были систематически убиты один за другим. Чтобы раскрыть зверские убийства, Кингстон объединяет свои усилия с дерзким и молодым детективом из отдела по расследованиям убийств. Но ни один из них не готов к шокирующей коррупции, их расследования будут раскрывать ошеломленные тайны, которые заставят столкнуться их с предательством и местью.

R - Лицам до 17 лет обязательно присутствие взрослого
Качество: BDRip 1080p
Контейнер (Расширение): MKV
Видео кодек: AVC
Аудио кодек: AC3
Видео: 1920x1080, 10940 Кбит/сек, 23,976 кадр/сек, 0,220 Бит/[Пиксели*Кадры]
Аудио №1: русский / AC3 / 5.1 / 48 kHz / 448 kbps / 16 bit |Профессиональный многоголосый|
Аудио №2: английский / AC3 / 5.1 / 48 kHz / 640 kbps / 16 bit
Навигация по главам(Чаптеры): естьАвтор рипа: Сообщество:

Код:

Format                                   : Matroska
Format version                           : Version 2
File size                                : 7.76 GiB
Duration                                 : 1h 32mn
Overall bit rate                         : 12.0 Mbps
Movie name                               : Koroli Ulic 2.(2011).BDRip.1080p.Unrated.[denis100]
Encoded date                             : UTC 2015-07-20 12:56:50
Writing application                      : mkvmerge v5.8.0 ('No Sleep / Pillow') built on Sep  2 2012 15:37:04
Writing library                          : libebml v1.2.3 + libmatroska v1.3.0

Video
ID                                       : 1
Format                                   : AVC
Format/Info                              : Advanced Video Codec
Format profile                           : High@L4.1
Format settings, CABAC                   : Yes
Format settings, ReFrames                : 4 frames
Codec ID                                 : V_MPEG4/ISO/AVC
Duration                                 : 1h 32mn
Bit rate                                 : 10.9 Mbps
Width                                    : 1 920 pixels
Height                                   : 1 080 pixels
Display aspect ratio                     : 16:9
Frame rate                               : 23.976 fps
Color space                              : YUV
Chroma subsampling                       : 4:2:0
Bit depth                                : 8 bits
Scan type                                : Progressive
Bits/(Pixel*Frame)                       : 0.220
Stream size                              : 6.91 GiB (89%)
Title                                    : rip by _denis_100
Writing library                          : x264 core 146 r2538 121396c
Encoding settings                        : cabac=1 / ref=4 / deblock=1:-3:-3 / analyse=0x3:0x133 / me=umh / subme=11 / psy=1 / psy_rd=1.00:0.00 / mixed_ref=1 / me_range=32 / chroma_me=1 / trellis=2 / 8x8dct=1 / cqm=0 / deadzone=21,11 / fast_pskip=0 / chroma_qp_offset=-2 / threads=6 / lookahead_threads=1 / sliced_threads=0 / nr=0 / decimate=1 / interlaced=0 / bluray_compat=0 / constrained_intra=0 / bframes=5 / b_pyramid=2 / b_adapt=2 / b_bias=0 / direct=3 / weightb=1 / open_gop=0 / weightp=2 / keyint=240 / keyint_min=23 / scenecut=40 / intra_refresh=0 / rc=2pass / mbtree=0 / bitrate=10940 / ratetol=1.0 / qcomp=0.60 / qpmin=0 / qpmax=69 / qpstep=4 / cplxblur=20.0 / qblur=0.5 / ip_ratio=1.40 / pb_ratio=1.30 / aq=1:1.00
Language                                 : English
Default                                  : Yes
Forced                                   : No

Audio #1
ID                                       : 2
Format                                   : AC-3
Format/Info                              : Audio Coding 3
Mode extension                           : CM (complete main)
Codec ID                                 : A_AC3
Duration                                 : 1h 32mn
Bit rate mode                            : Constant
Bit rate                                 : 448 Kbps
Channel(s)                               : 6 channels
Channel positions                        : Front: L C R, Side: L R, LFE
Sampling rate                            : 48.0 KHz
Bit depth                                : 16 bits
Compression mode                         : Lossy
Stream size                              : 296 MiB (4%)
Title                                    : Профессиональный многоголосый
Language                                 : Russian
Default                                  : Yes
Forced                                   : No

Audio #2
ID                                       : 3
Format                                   : AC-3
Format/Info                              : Audio Coding 3
Mode extension                           : CM (complete main)
Codec ID                                 : A_AC3
Duration                                 : 1h 32mn
Bit rate mode                            : Constant
Bit rate                                 : 640 Kbps
Channel(s)                               : 6 channels
Channel positions                        : Front: L C R, Side: L R, LFE
Sampling rate                            : 48.0 KHz
Bit depth                                : 16 bits
Compression mode                         : Lossy
Stream size                              : 423 MiB (5%)
Language                                 : English
Default                                  : No
Forced                                   : No

Text #1
ID                                       : 4
Format                                   : UTF-8
Codec ID                                 : S_TEXT/UTF8
Codec ID/Info                            : UTF-8 Plain Text
Language                                 : Russian
Default                                  : No
Forced                                   : No

Text #2
ID                                       : 5
Format                                   : UTF-8
Codec ID                                 : S_TEXT/UTF8
Codec ID/Info                            : UTF-8 Plain Text
Language                                 : English
Default                                  : No
Forced                                   : No

Menu
00:00:00.000                             : en:00:00:00.000
00:05:44.302                             : en:00:05:44.302
00:08:09.280                             : en:00:08:09.280
00:11:21.931                             : en:00:11:21.931
00:14:50.890                             : en:00:14:50.890
00:17:24.377                             : en:00:17:24.377
00:20:38.946                             : en:00:20:38.946
00:23:28.115                             : en:00:23:28.115
00:28:02.389                             : en:00:28:02.389
00:30:19.026                             : en:00:30:19.026
00:32:21.022                             : en:00:32:21.022
00:34:30.568                             : en:00:34:30.568
00:37:40.633                             : en:00:37:40.633
00:42:05.606                             : en:00:42:05.606
00:46:14.647                             : en:00:46:14.647
00:51:32.464                             : en:00:51:32.464
00:54:19.673                             : en:00:54:19.673
00:59:17.971                             : en:00:59:17.971
01:06:48.671                             : en:01:06:48.671
01:09:55.191                             : en:01:09:55.191
01:13:31.449                             : en:01:13:31.449
01:18:10.102                             : en:01:18:10.102
01:22:34.908                             : en:01:22:34.908
01:26:09.289                             : en:01:26:09.289

x264 [info]: frame I:909 Avg QP:14.52 size:220297
x264 [info]: frame P:33699 Avg QP:15.95 size:101131
x264 [info]: frame B:98277 Avg QP:17.31 size: 40404
pb.wtf



Скачать Короли улиц 2 через торрент http://i72.fastpic.ru/big/2015/0720/80/6a4e50fb37619f39fd50945565522080.png Скачать фильм Короли улиц 2 через торрент бесплантно в хорошем качестве Описание:Детройтский детектив Марти Кингстон - лидер полицейских под прикрытием, которые были систематически убиты один за другим. Чтобы ... 10 10 2
Info! Золотая раздача, скачанное не засчитывается.
Торрент: Зарегистрирован [2015-07-20 13:18] · скачан: 48 раз
Статус: √ проверено
Размер: 7.76 GB
Как cкачать? Как скачать Короли улиц 2 через торрент | qTorrent

28-11-2019 20:33  

Отключить всю рекламу на сайте

    Дорогой пользователь! Огромная просьба, поблагодарите релизера, оцените раздачу и оставьте свои комментарий, если Вы скачали Короли улиц 2 через торрент бесплатно! Внесите свою лепту в развитие PiratBit!
    Комментировать посты могут только пользователи прошедшие не сложную регистрацию
    Показать сообщения:    

    Короли улиц 2 через торрент
    Скачать бесплатно Короли улиц 2
    Короли улиц 2 скачать торрент
    Короли улиц 2 смотреть онлайн
    Cкачать фильм Короли улиц 2 бесплатно
    Короли улиц 2 скачать торрент в хорошем качестве
    Короли улиц 2 смотреть онлайн бесплатно в хорошем качестве


    Вы не можете начинать темы
    Вы не можете отвечать на сообщения
    Вы не можете редактировать свои сообщения
    Вы не можете удалять свои сообщения
    Вы не можете голосовать в опросах
    Вы не можете прикреплять файлы к сообщениям
    Вы можете скачивать файлы