Ссылка на приватное зеркало нашего сайта всего за 1$. Внимание количество ограничено!!!

2 сезон

iTunes

1 сезон

1

iTunes

iTunes

iTunes

1 сезон

RePack

30

ИГРА 18+

pack

ВАЖНО

!!Акция!!

Alien_RageХит недели

RePack

MK11
pack

Забери бонус

RePack

jed

!!Акция!!

Alien_Rage

RePack

fifa19

RePack

Assassins Creed: Odyssey

RePack

NEED FOR SPEED™ PAYBACK

4 сезон

9 сезон

Бесстыжие 9 сезон

Все сериалы

все сериалы на PB.wtf

RePack

FAR CRY 5
  

Сборник мультфильмов (Михаил Цехановский, Фёдор Хитрук, Борис Дежкин...) [1955-1985, СССР, мультфильм, короткометражка, DVDRip от AVP Studio] pb.wtf

Сборник мультфильмов через торрент pb.wtf

Размер: 4.36 GB | Добавлен: 5 лет 2 мес. назад | Торрент скачан:42 раза
Скачать  

27-07-2015 12:56 Сборник мультфильмов Скачать торрент  

Сборник мультфильмов
Страна: СССР
Производство: Союзмультфильм

Жанр: мультфильм, короткометражка
Год выпуска: 1955-1985
Продолжительность: 04:38:24 (23 мультфильма)

Перевод: Не требуется
Cубтитры: нет
Оригинальная аудиодорожка: русский

Режиссер: Михаил Цехановский, Фёдор Хитрук, Борис Дежкин...

Описание: «Союзмультфильм» — крупнейшая в СССР студия мультипликационных фильмов, основанная в Москве 10 июня 1936 года. Студия создана 10 июня 1936 года с названием — «Союздетмультфильм» (из объединения мелких коллективов Мосфильма, Совкино и Межрабпромфильма), а с 20 августа 1937 года ее переименовали в «Союзмультфильм». Хотя приказ о создании студии был подписан начальником Главного Управления кинофотопромышленности, считается, что решение о создании студии мультипликационных фильмов исходило лично от И. В. Сталина. Для студии были выделены помещения закрытых Советской властью храмов: Николая Чудотворца в Новой слободе на Долгоруковской улице (в советское время — Каляевской улице), где находилось производство рисованных фильмов, и Спаса Преображения «что на Песках» в Спасопесковском переулке на Арбате, где располагалось «Творческое объединение кукольных фильмов». Храм на Арбате в 1991 году был возвращен Русской Православной Церкви, а храм на ул. Долгоруковской не возвращен РПЦ до сих пор, хотя решения о необходимости, в принципе, вернуть Церкви отнятые у неё храмы принимались уже более 15 лет назад. В настоящее время здание на Долгоруковской ул. дом 25 находится в федеральной собственности и закреплено на праве хозяйственного ведения за ФГУП "ТПО "Киностудия «Союзмультфильм».
Первый мультфильм, выпущенный студией, назывался «В Африке жарко» (1936 год). С 1937 года начали выпускаться цветные мультфильмы. На студии снято более 1500 мультфильмов.

Источник: DVD5 R5
Качество видео: DVDRip
Формат видео: AVI
Видео кодек: XviD
Аудио кодек: AC3
Видео: 720x544 (4:3), 25 fps, XviD ~ 2379 kbps avg, 0.260 bit/pixel
Аудио: 48 kHz, Dolby Digital AC3 2.0, 192 kbps

Раздача от:
01. Необыкновенный матч (1955) 0:19:52
02. Старые знакомые (1956) 0:20:19
03. Шайбу! Шайбу! (1964) 0:20:16
04. Приключения запятой и точки (1965) 0:15:15
05. Матч-реванш (1968) 0:19:37
06. Метеор на ринге (1970) 0:18:56
07. Симулянт (1972) 0:06:40
08. Кем быть (1973) 0:08:49
09. Мы с Джеком (1973) 0:09:39
10. Футбольные звезды (1974) 0:17:56
11. Проделкин в школе (1974) 0:09:40
12. Басни Михалкова (1975) 0:09:47
13. Лямзи-тыри-бонди - злой волшебник (1976) 0:09:43
14. Талант и поклонники (1978) 0:09:34
15. Честное слово (1978) 0:09:39
16. На задней парте (1978) 0:09:06
17. Робинзон Кузя (1978) 0:16:54
18. Жадный богач (1980) 0:04:21
19. Как старик корову продавал (1980) 0:05:49
20. На задней парте. 2-й выпуск (1980) 0:09:37
21. Приходи на каток (1981) 0:08:56
22. Волшебная лопата (1984) 0:08:09
23. Ты меня не бойся (1985) 0:09:20
Общее
Полное имя : Sbornik.multfilmov.1955-1985.DVDRip_[New-team]_by_AVP_Studio\03. Шайбу! Шайбу! (1964).avi
Формат : AVI
Формат/Информация : Audio Video Interleave
Размер файла : 426 Мбайт
Продолжительность : 20 м.
Общий поток : 2938 Кбит/сек
Программа кодирования : VirtualDubMod 1.5.10.3 | www.virtualdub-fr.org || (build 2550/release)
Библиотека кодирования : VirtualDubMod build 2550/release

Видео
Идентификатор : 0
Формат : MPEG-4 Visual
Профиль формата : Advanced Simple@L5
Параметр BVOP формата : 1
Параметр QPel формата : Нет
Параметр GMC формата : Без точки перехода
Параметр матрицы формата : Выборочная
Идентификатор кодека : XVID
Идентификатор кодека/Подсказка : XviD
Продолжительность : 20 м.
Битрейт : 2379 Кбит/сек
Ширина : 720 пикселей
Высота : 544 пикселя
Соотношение сторон : 4:3
Частота кадров : 25,000 кадров/сек
Цветовое пространство : YUV
Субдискретизация насыщенности : 4:2:0
Битовая глубина : 8 бит
Тип развёртки : Прогрессивная
Метод сжатия : С потерями
Бит/(Пиксели*Кадры) : 0.260
Размер потока : 397 Мбайт (93%)
Библиотека кодирования : XviD 73

Аудио
Идентификатор : 1
Формат : AC-3
Формат/Информация : Audio Coding 3
Расширение режима : CM (complete main)
Параметр Endianness формата : Big
Идентификатор кодека : 2000
Продолжительность : 20 м.
Вид битрейта : Постоянный
Битрейт : 192 Кбит/сек
Каналы : 2 канала
Расположение каналов : Front: L R
Частота : 48,0 КГц
Метод сжатия : С потерями
Размер потока : 27,8 Мбайт (7%)
Выравнивание : Разделение по промежуткам
Продолжительность промежутка : 40 мс. (1,00 видеокадр)
Время предзагрузки промежутка : 500 мс
pb.wtf



Скачать Сборник мультфильмов через торрент http://s020.radikal.ru/i713/1507/b7/ca70ba825789.png Скачать фильм Сборник мультфильмов через торрент бесплантно в хорошем качестве Описание: «Союзмультфильм» — крупнейшая в СССР мульликационных фильмов, основанная в Москве 10 июня 1936 года. Студия создана 10 ... 10 10 3
Торрент: Зарегистрирован [2015-07-27 12:56] · скачан: 42 раз
Статус: √ проверено
Размер: 4.36 GB
Как cкачать? Как скачать Сборник мультфильмов через торрент | qTorrent

% Раздел Тема Автор DL S | L
Мультсериалы [ 69.15 GB ] Веселые дии / Looney Tunes / Серии: 1-592 из ? [1931-2011 мультфильм короткометражка BDRip DVDRip от keeper.52] MVO+Original+SUB keeper.52 Скачать
1 | 0
Наши мультфильмы [ 6.08 GB ] Гора самоцветов / Сборник мультфильмов [2004 - 2009 мультфильм DVDRip-AVC] nn99nn Скачать
2 | 0
Наши мультфильмы [ 868 MB ] 38 попугаев. Сборник мультфильмов [1978-1991 кукольные мультфильмы DVDRip] Стpана Скачать
2 | 0
Наши мультфильмы [ 1.34 GB ] Сказки для малышей. Владимир Сутеев. Сборник мультфильмов [1955-1974 Мультфильм DVDRip] Aleg333ator Скачать
3 | 0
Наши мультфильмы [ 146.89 GB ] Сборник советских мультфильмов SATRip профессиональный читерас Скачать
1 | 1
Короткометражные мультфильмы [ 1.09 GB ] Сборник мультфильмов. Клуб весёлых человечков. [1959-1965 СССР мультфильм короткометражка DVDRip-AVC SATRip-AVC VHSRip-AVC от AVP Studio] AVP Studio Скачать
13 | 0
Короткометражные мультфильмы [ 1.08 GB ] Сборник мультфильмов. Клуб весёлых человечков. [1959-1965 СССР мультфильм короткометражка DVDRip SATRip VHSRip от AVP Studio] AVP Studio Скачать
1 | 0

28-11-2019 20:33  

Отключить всю рекламу на сайте

    Дорогой пользователь! Огромная просьба, поблагодарите релизера, оцените раздачу и оставьте свои комментарий, если Вы скачали Сборник мультфильмов через торрент бесплатно! Внесите свою лепту в развитие PiratBit!
    Комментировать посты могут только пользователи прошедшие не сложную регистрацию
    Показать сообщения:    

    Сборник мультфильмов через торрент
    Скачать бесплатно Сборник мультфильмов
    Сборник мультфильмов скачать торрент
    Сборник мультфильмов смотреть онлайн
    Cкачать фильм Сборник мультфильмов бесплатно
    Сборник мультфильмов скачать торрент в хорошем качестве
    Сборник мультфильмов смотреть онлайн бесплатно в хорошем качестве


    Вы не можете начинать темы
    Вы не можете отвечать на сообщения
    Вы не можете редактировать свои сообщения
    Вы не можете удалять свои сообщения
    Вы не можете голосовать в опросах
    Вы не можете прикреплять файлы к сообщениям
    Вы можете скачивать файлы