Всегда рабочее зеркало без VPN и Proxy просто перед .vidak.icu напиши любое слово или цифру, Пример http://f9i4.vidak.icu

MVO

Лицензия

1 сезон

1

1 сезон

iTunes

1 сезон

13

1 сезон

Deluxe

pack

Рекомендуем

Пиратка

30

ВАЖНО

RePack

MK11

RePack

jed

RePack

fifa19

RePack

RDR2

RePack

NEED FOR SPEED™ PAYBACK

Кинопоиск HD

6 сезон

 Острые козырьки 6 сезон

Все сериалы

все сериалы на PB.wtf

RePack

FAR CRY 5
  
Magnet ссылка

Боец / The Fighter (Дэвид О. Расселл / David O. Russell) [2010, драма, биография, спорт, BDRip-AVC от potroks] DUB Лицензия pb.wtf

Боец через торрент pb.wtf

Размер: 2.91 GB | Добавлен: 6 лет 7 мес. назад | Торрент скачан:329 раз
Смотреть онлайн Боец | Скачать    Ребята, помогите собрать деньги на оплату серверов!!!

08-11-2015 11:14 Боец Скачать торрент  

Боец / The Fighter
«Every dream deserves a fighting chance»
Год выпуска: 2010
Страна: США / Relativity Media, Mandeville Films...
Жанр: драма, биография, спорт
Продолжительность: 01:55:38
Перевод: Дубляж [BD RUS]
Субтитры: русские, английские
Навигация по главам: есть
Режиссер: Дэвид О. Расселл / David O. Russell
В ролях:

Марк Уолберг (Micky Ward), Кристиан Бэйл (Dicky Eklund), Эми Адамс (Charlene Fleming), Мелисса Лео (Alice Ward), Джек МакГи (George Ward), Мики О’Кифи (Mickey O'Keefe), Мелисса МакМикин («Little Alice» Eklund), Бьянка Хантер (Cathy «Pork» Eklund), Эрика МакДермотт (Cindy «Tar» Eklund), Джилл Квигг (Donna Eklund Jaynes), Дендри Тейлор (Gail «Red Dog» Eklund), Кейт Б. О’Брайэн (Phyllis 'Beaver' Eklund)
Описание: Невероятная, но реальная история пути к званию чемпиона мира боксера Микки Уорда по кличке «Ирландец». Восхождение Уорда было похоже на восхождение легендарного Рокки. Парень из народа, между боями он трудился на дорожных работах.
Пережив череду неудач и поражений, Микки сумел снова вернуться на ринг, когда его тренером стал сводный брат Дикки Эклунд, бывший боксер, карьера которого оборвалась из-за пристрастия к наркотикам. Помощь брата, любовь официантки Шарлин, забота матери и несгибаемая воля к победе позволили Уорду взойти на мировой пьедестал...

Качество: BDRip-AVC
Формат: MKV
Видео кодек: AVC
Аудио кодек: AC3
Видео: 1032x430 (2.40:1), 2706 kbps, 23,976 fps, 0,254 bit/pixel
Аудио №1: AC3 / 5.1 / 48 kHz / 448 kbps / 16 bit | RUS
Аудио №2: AC3 / 5.1 / 48 kHz / 448 kbps / 16 bit | ENG

Релиз группы:
Автор рипа: potroks

Код:

General
Unique ID                                : 173554374762282738152991992923027885003 (0x82915B52E172C31F9A603C215B674BCB)
Complete name                            : Boetc.2010.DUAL.BDRip.x264.-HELLYWOOD.mkv
Format                                   : Matroska
Format version                           : Version 4 / Version 2
File size                                : 2.91 GiB
Duration                                 : 1h 55mn
Overall bit rate                         : 3 604 Kbps
Movie name                               : The Fighter (2010) - HELLYWOOD
Encoded date                             : UTC 2010-02-22 21:41:31
Writing application                      : mkvmerge v5.8.0 ('No Sleep / Pillow') built on Sep 30 2012 10:57:14
Writing library                          : libebml v1.3.0 + libmatroska v1.4.0

Video
ID                                       : 1
Format                                   : AVC
Format/Info                              : Advanced Video Codec
Format profile                           : High@L4.1
Format settings, CABAC                   : Yes
Format settings, ReFrames                : 10 frames
Codec ID                                 : V_MPEG4/ISO/AVC
Duration                                 : 1h 55mn
Bit rate                                 : 2 706 Kbps
Width                                    : 1 032 pixels
Height                                   : 430 pixels
Display aspect ratio                     : 2.40:1
Frame rate                               : 23.976 fps
Color space                              : YUV
Chroma subsampling                       : 4:2:0
Bit depth                                : 8 bits
Scan type                                : Progressive
Bits/(Pixel*Frame)                       : 0.254
Stream size                              : 2.13 GiB (73%)
Title                                    : potroks
Writing library                          : x264 core 146 r2538 121396c
Encoding settings                        : cabac=1 / ref=10 / deblock=1:-3:-3 / analyse=0x3:0x113 / me=umh / subme=11 / psy=1 / psy_rd=0.98:0.00 / mixed_ref=1 / me_range=48 / chroma_me=1 / trellis=2 / 8x8dct=1 / cqm=0 / deadzone=21,11 / fast_pskip=0 / chroma_qp_offset=-2 / threads=9 / lookahead_threads=2 / sliced_threads=0 / nr=0 / decimate=0 / interlaced=0 / bluray_compat=0 / constrained_intra=0 / bframes=11 / b_pyramid=2 / b_adapt=2 / b_bias=0 / direct=3 / weightb=1 / open_gop=0 / weightp=2 / keyint=250 / keyint_min=23 / scenecut=40 / intra_refresh=0 / rc_lookahead=60 / rc=2pass / mbtree=0 / bitrate=2706 / ratetol=1.0 / qcomp=0.70 / qpmin=0 / qpmax=69 / qpstep=4 / cplxblur=20.0 / qblur=0.5 / vbv_maxrate=14000 / vbv_bufsize=14000 / nal_hrd=none / filler=0 / ip_ratio=1.35 / pb_ratio=1.25 / aq=1:0.80
Language                                 : English
Default                                  : Yes
Forced                                   : No

Audio #1
ID                                       : 2
Format                                   : AC-3
Format/Info                              : Audio Coding 3
Mode extension                           : CM (complete main)
Codec ID                                 : A_AC3
Duration                                 : 1h 55mn
Bit rate mode                            : Constant
Bit rate                                 : 448 Kbps
Channel(s)                               : 6 channels
Channel positions                        : Front: L C R, Side: L R, LFE
Sampling rate                            : 48.0 KHz
Bit depth                                : 16 bits
Compression mode                         : Lossy
Stream size                              : 371 MiB (12%)
Title                                    : Dub | DD 5.1 @ 448 kbps - Blu-Ray RUS
Language                                 : Russian
Default                                  : Yes
Forced                                   : No

Audio #2
ID                                       : 3
Format                                   : AC-3
Format/Info                              : Audio Coding 3
Mode extension                           : CM (complete main)
Codec ID                                 : A_AC3
Duration                                 : 1h 55mn
Bit rate mode                            : Constant
Bit rate                                 : 448 Kbps
Channel(s)                               : 6 channels
Channel positions                        : Front: L C R, Side: L R, LFE
Sampling rate                            : 48.0 KHz
Bit depth                                : 16 bits
Compression mode                         : Lossy
Stream size                              : 371 MiB (12%)
Title                                    : Original | DD 5.1 @ 448 kbps
Language                                 : English
Default                                  : No
Forced                                   : No

Text #1
ID                                       : 4
Format                                   : UTF-8
Codec ID                                 : S_TEXT/UTF8
Codec ID/Info                            : UTF-8 Plain Text
Language                                 : Russian
Default                                  : No
Forced                                   : No

Text #2
ID                                       : 5
Format                                   : UTF-8
Codec ID                                 : S_TEXT/UTF8
Codec ID/Info                            : UTF-8 Plain Text
Language                                 : English
Default                                  : No
Forced                                   : No

Menu
00:00:00.000                             : en:00:00:00.000
00:07:11.181                             : en:00:07:11.181
00:16:34.202                             : en:00:16:34.202
00:22:32.351                             : en:00:22:32.351
00:28:34.755                             : en:00:28:34.755
00:36:20.678                             : en:00:36:20.678
00:43:16.803                             : en:00:43:16.803
00:51:54.945                             : en:00:51:54.945
01:00:48.144                             : en:01:00:48.144
01:07:08.274                             : en:01:07:08.274
01:13:04.463                             : en:01:13:04.463
01:20:43.505                             : en:01:20:43.505
01:25:03.890                             : en:01:25:03.890
01:33:54.045                             : en:01:33:54.045
01:40:13.758                             : en:01:40:13.758
01:50:18.529                             : en:01:50:18.529
01:55:38.265                             : en:01:55:38.265

pb.wtf



Скачать Боец через торрент http://i65.fastpic.ru/big/2015/1108/54/dbc1bcae47245ea57747a237d6f5a554.png Скачать, смотреть онлайн Боец бесплантно в хорошем качестве Описание: Невероятная, но реальная история пути к званию чемпиона мира боксера Микки Уорда по кличке «Ирландец». Восхождение Уорда было ... 10 10 4
Info! Золотая раздача, скачанное не засчитывается.
Торрент: Зарегистрирован [2015-11-08 11:14] · скачан: 329 раз
Статус: √ проверено
Размер: 2.91 GB
Как cкачать? Как скачать Боец через торрент | UTorrent

% Раздел Тема Автор DL S | L
Фильмы 2010 [ 1.46 GB ] Боец / The Fighter [2010 биография BDRip] DUB [лицензия ] Ворон Скачать
1 | 0
Фильмы [HD 720p, 1080p] (Хороший звук DUB, MVO) [ 8.97 GB ] Боец / The Fighter [2010 биография BDRip 720p] DUB [лицензия ]+Оригинал Ворон Скачать
1 | 0
Фильмы 2010 [ 745 MB ] Боец / The Fighter [2010 биография HDRip] Dub [лицензия ] Ворон Скачать
1 | 0

28-11-2019 20:33  

Отключить всю рекламу на сайте

    Дорогой пользователь! Огромная просьба, поблагодарите релизера, оцените раздачу и оставьте свои комментарий, если Вы скачали Боец через торрент бесплатно!
    Комментировать посты могут только пользователи прошедшие не сложную регистрацию
    Показать сообщения:    

    Боец через торрент
    Скачать бесплатно Боец
    Боец скачать торрент
    Боец смотреть онлайн
    Cкачать фильм Боец бесплатно
    Боец скачать торрент в хорошем качестве
    Боец смотреть онлайн бесплатно в хорошем качестве


    Вы не можете начинать темы
    Вы не можете отвечать на сообщения
    Вы не можете редактировать свои сообщения
    Вы не можете удалять свои сообщения
    Вы не можете голосовать в опросах
    Вы не можете прикреплять файлы к сообщениям
    Вы можете скачивать файлы