Всегда рабочее зеркало без VPN и Proxy просто перед .vidak.icu напиши любое слово или цифру, Пример http://rl6w.vidak.icu

MVO

Лицензия

1 сезон

1

1 сезон

iTunes

1 сезон

13

1 сезон

Deluxe

pack

Рекомендуем

Пиратка

30

ВАЖНО

RePack

MK11

RePack

jed

RePack

fifa19

RePack

RDR2

RePack

NEED FOR SPEED™ PAYBACK

Кинопоиск HD

6 сезон

 Острые козырьки 6 сезон

Все сериалы

все сериалы на PB.wtf

RePack

FAR CRY 5
  
Magnet ссылка

Медленный Запад / Строго на запад / Slow West (Джон Маклин / John Maclean) [2015, вестерн, драма, триллер, BDRip-AVC от potroks] Dub [iTunes] pb.wtf

Медленный Запад через торрент pb.wtf

Размер: 2.14 GB | Добавлен: 6 лет 4 мес. назад | Торрент скачан:1112 раз
Смотреть онлайн Медленный Запад | Скачать    Ребята, помогите собрать деньги на оплату серверов!!!

07-02-2016 16:10 Медленный Запад Скачать торрент  

Медленный Запад / Строго на запад / Slow West
«Wanted dead or dead»
Год выпуска: 2015
Страна: Великобритания, Новая Зеландия / DMC Film, Film4, New Zealand Film Commission...
Жанр: вестерн, драма, триллер
Продолжительность: 01:23:05
Перевод: Дубляж [iTunes]
Субтитры: русские, английские (Forced + Full + SDH + SDH-Colored)
Навигация по главам: есть
Режиссер: Джон Маклин / John Maclean
В ролях:

Коди Смит-МакФи (Jay Cavendish), Майкл Фассбендер (Silas Selleck), Бен Мендельсон (Payne), Аорере Паки (Young Native Boy), Хейден Фрост (Young Soldier 1), Карен Писториус (Rose Ross), Киран Чернок (Young Soldier 2), Эдвин Райт (Victor the Hawk), Джозеф Пасси (Congolese Singer 1), Эндрю Робертт (Werner), Сэм Манзанза (Congolese Singer 2), Таванда Маниймо (Congolese Singer 3)
Описание: История авантюриста по имени Сайлас, сопровождающего в опасном путешествии вдоль всей американской границы 16-летнего паренька по имени Джей Кавендиш. Джей разыскивает девушку, в которую влюблен.
Они пересеклись случайно, одинокий волк, отбившийся от волчьей стаи и заяц, оказавшийся в волчьем логове. Он мог дать ему умереть, мог убить, но не вцепился в горло, а пошёл с ним по следу, помогая найти затаившуюся где-то любовь, провожая через поля ненависти и леса страха, твёрдо, не решив, что делать дальше с ним и с собой.

Качество: BDRip-AVC
Формат: MKV
Видео кодек: AVC
Аудио кодек: AC3
Видео: 1116x672 (1.661), 2860 kbps, 24 fps, 0,159 bit/pixel
Аудио №1: AC3 / 5.1 / 48 kHz / 384 kbps / 16 bit | RUS
Аудио №2: AC3 / 5.1 / 48 kHz / 448 kbps / 16 bit | ENG

Релиз группы:
Автор рипа: potroks

Код:

General
Unique ID                                : 218220894818606875014903215550170254537 (0xA42BD0C9FEF50ED4A3D13448E9D9CCC9)
Complete name                            : Strogo.na.Zapad.2015.DUAL.BDRip.x264.-HELLYWOOD.mkv
Format                                   : Matroska
Format version                           : Version 4 / Version 2
File size                                : 2.14 GiB
Duration                                 : 1h 23mn
Overall bit rate                         : 3 692 Kbps
Movie name                               : Slow West (2015) - HELLYWOOD
Encoded date                             : UTC 2016-02-07 15:57:02
Writing application                      : mkvmerge v5.9.0 ('On The Loose') built on Dec 15 2012 16:39:58
Writing library                          : libebml v1.3.0 + libmatroska v1.4.0

Video
ID                                       : 1
Format                                   : AVC
Format/Info                              : Advanced Video Codec
Format profile                           : High@L4.1
Format settings, CABAC                   : Yes
Format settings, ReFrames                : 10 frames
Codec ID                                 : V_MPEG4/ISO/AVC
Duration                                 : 1h 23mn
Bit rate                                 : 2 860 Kbps
Width                                    : 1 116 pixels
Height                                   : 672 pixels
Display aspect ratio                     : 1.661
Frame rate                               : 24.000 fps
Color space                              : YUV
Chroma subsampling                       : 4:2:0
Bit depth                                : 8 bits
Scan type                                : Progressive
Bits/(Pixel*Frame)                       : 0.159
Stream size                              : 1.62 GiB (75%)
Title                                    : potroks
Writing library                          : x264 core 146 r2538 121396c
Encoding settings                        : cabac=1 / ref=10 / deblock=1:-2:-2 / analyse=0x3:0x113 / me=umh / subme=11 / psy=1 / psy_rd=1.00:0.05 / mixed_ref=1 / me_range=48 / chroma_me=1 / trellis=2 / 8x8dct=1 / cqm=0 / deadzone=21,11 / fast_pskip=0 / chroma_qp_offset=-3 / threads=9 / lookahead_threads=2 / sliced_threads=0 / nr=0 / decimate=0 / interlaced=0 / bluray_compat=0 / constrained_intra=0 / bframes=11 / b_pyramid=2 / b_adapt=2 / b_bias=0 / direct=3 / weightb=1 / open_gop=0 / weightp=2 / keyint=240 / keyint_min=23 / scenecut=40 / intra_refresh=0 / rc_lookahead=60 / rc=2pass / mbtree=0 / bitrate=2860 / ratetol=1.0 / qcomp=0.70 / qpmin=0 / qpmax=69 / qpstep=4 / cplxblur=20.0 / qblur=0.5 / vbv_maxrate=14000 / vbv_bufsize=14000 / nal_hrd=none / filler=0 / ip_ratio=1.40 / pb_ratio=1.30 / aq=1:0.80
Language                                 : English
Default                                  : Yes
Forced                                   : No

Audio #1
ID                                       : 2
Format                                   : AC-3
Format/Info                              : Audio Coding 3
Mode extension                           : CM (complete main)
Codec ID                                 : A_AC3
Duration                                 : 1h 23mn
Bit rate mode                            : Constant
Bit rate                                 : 384 Kbps
Channel(s)                               : 6 channels
Channel positions                        : Front: L C R, Side: L R, LFE
Sampling rate                            : 48.0 KHz
Bit depth                                : 16 bits
Compression mode                         : Lossy
Stream size                              : 228 MiB (10%)
Title                                    : Dub | DD 5.1 @ 384 kbps - iTunes
Language                                 : Russian
Default                                  : Yes
Forced                                   : No

Audio #2
ID                                       : 3
Format                                   : AC-3
Format/Info                              : Audio Coding 3
Mode extension                           : CM (complete main)
Codec ID                                 : A_AC3
Duration                                 : 1h 23mn
Bit rate mode                            : Constant
Bit rate                                 : 448 Kbps
Channel(s)                               : 6 channels
Channel positions                        : Front: L C R, Side: L R, LFE
Sampling rate                            : 48.0 KHz
Bit depth                                : 16 bits
Compression mode                         : Lossy
Stream size                              : 266 MiB (12%)
Title                                    : Original | DD 5.1 @ 448 kbps
Language                                 : English
Default                                  : No
Forced                                   : No

Text #1
ID                                       : 4
Format                                   : UTF-8
Codec ID                                 : S_TEXT/UTF8
Codec ID/Info                            : UTF-8 Plain Text
Title                                    : Translation: er45ty
Language                                 : Russian
Default                                  : No
Forced                                   : No

Text #2
ID                                       : 5
Format                                   : UTF-8
Codec ID                                 : S_TEXT/UTF8
Codec ID/Info                            : UTF-8 Plain Text
Title                                    : Forced
Language                                 : English
Default                                  : No
Forced                                   : No

Text #3
ID                                       : 6
Format                                   : UTF-8
Codec ID                                 : S_TEXT/UTF8
Codec ID/Info                            : UTF-8 Plain Text
Title                                    : Full
Language                                 : English
Default                                  : No
Forced                                   : No

Text #4
ID                                       : 7
Format                                   : UTF-8
Codec ID                                 : S_TEXT/UTF8
Codec ID/Info                            : UTF-8 Plain Text
Title                                    : SDH
Language                                 : English
Default                                  : No
Forced                                   : No

Text #5
ID                                       : 8
Format                                   : UTF-8
Codec ID                                 : S_TEXT/UTF8
Codec ID/Info                            : UTF-8 Plain Text
Title                                    : SDH-Colored
Language                                 : English
Default                                  : No
Forced                                   : No

Menu
00:00:00.000                             : en:(01)00:00:00:000
00:09:32.125                             : en:(02)00:09:32:125
00:19:12.290                             : en:(03)00:19:12:290
00:29:05.875                             : en:(04)00:29:05:875
00:37:45.125                             : en:(05)00:37:45:125
00:46:56.083                             : en:(06)00:46:56:083
00:59:06.416                             : en:(07)00:59:06:416
01:09:57.082                             : en:(08)01:09:57:082
01:18:22.666                             : en:(09)01:18:22:666

pb.wtf



Скачать Медленный Запад через торрент http://i74.fastpic.ru/big/2016/0207/fb/092d7146f5cf00c1f31adf764f6996fb.png Скачать, смотреть онлайн Медленный Запад бесплантно в хорошем качестве Описание: История авантюриста по имени Сайлас, сопровождающего в опасном путешествии вдоль всей американской границы 16-летнего паренька ... 9 10 22
Info! Золотая раздача, скачанное не засчитывается.
Торрент: Зарегистрирован [2016-02-07 16:10] · скачан: 1 112 раз
Статус: √ проверено
Размер: 2.14 GB
Как cкачать? Как скачать Медленный Запад через торрент | UTorrent

% Раздел Тема Автор DL S | L
Фильмы 2015 [DVDrip, WEB-DLRip, HDrip] [ 1.46 GB ] Строго на запад / Медленный Запад / Slow West [2015 BDRip] DUB Twi7ter Скачать
1 | 0
Фильмы 2015 [DVDrip, WEB-DLRip, HDrip] [ 1.42 GB ] Медленный Запад / Строго на запад / Slow West [2015 BDRip-AVC] Dub potroks Скачать
1 | 0
Фильмы 2015 [DVDrip, WEB-DLRip, HDrip] [ 1.42 GB ] Строго на запад / Медленный Запад / Slow West [2015 BDRip] Dub Twi7ter Скачать
1 | 0
Фильмы [HD 720p, 1080p] (Хороший звук DUB, MVO) [ 8.27 GB ] Медленный Запад / Строго на запад / Slow West [2015 BDRip 1080p DUB ] Ворон Скачать
1 | 0

28-11-2019 20:33  

Отключить всю рекламу на сайте

10-02-2016 17:29 Медленный Запад Скачать торрент  

Так себе фильм, нудноват! Автору спасибоpb.wtf



14-02-2016 14:37 Медленный Запад Скачать торрент  

Унылый шлак!pb.wtf



01-03-2016 16:46 Медленный Запад Скачать торрент  

Эх, ребята, так и хочется сказать - смотрите вы лучше своих терминаторов и трансформаторовpb.wtf



    Дорогой пользователь! Огромная просьба, поблагодарите релизера, оцените раздачу и оставьте свои комментарий, если Вы скачали Медленный Запад через торрент бесплатно!
    Комментировать посты могут только пользователи прошедшие не сложную регистрацию
    Показать сообщения:    

    Медленный Запад через торрент
    Скачать бесплатно Медленный Запад
    Медленный Запад скачать торрент
    Медленный Запад смотреть онлайн
    Cкачать фильм Медленный Запад бесплатно
    Медленный Запад скачать торрент в хорошем качестве
    Медленный Запад смотреть онлайн бесплатно в хорошем качестве


    Вы не можете начинать темы
    Вы не можете отвечать на сообщения
    Вы не можете редактировать свои сообщения
    Вы не можете удалять свои сообщения
    Вы не можете голосовать в опросах
    Вы не можете прикреплять файлы к сообщениям
    Вы можете скачивать файлы