Ссылка на приватное зеркало нашего сайта всего за 1$. Внимание количество ограничено!!!

2 сезон

iTunes

1 сезон

1

2 сезон

2 сезон

iTunes

1 сезон

RePack

30

Новинка

ВАЖНО

ИГРА 18+

pack

RePack

MK11
pack

Забери бонус

RePack

jed

!!Акция!!

Alien_Rage

RePack

fifa19

RePack

Assassins Creed: Odyssey

RePack

NEED FOR SPEED™ PAYBACK

4 сезон

9 сезон

Бесстыжие 9 сезон

Все сериалы

все сериалы на PB.wtf

RePack

FAR CRY 5
  

Любовь и дружба / Love & Friendship (Уит Стиллман) [2016, драма, мелодрама, комедия, BDRip 1080p] [DUB] [Лицензия / iTunes] pb.wtf

Любовь и дружба через торрент pb.wtf

Размер: 11.02 GB | Добавлен: 4 года 2 мес. назад | Торрент скачан:108 раз
Скачать  

15-09-2016 06:11 Любовь и дружба Скачать торрент  

Любовь и дружба / Love & Friendship
Год выхода: 2016
Страна: Ирландия, Нидерланды, Франция, США, Великобритания
жанр: драма, мелодрама, комедия
Продолжительность: 01:33:18
Перевод: Дублированный [Лицензия / iTunes]
Субтитры: Английские

Режиссер: Уит Стиллман

В ролях: Кейт Бекинсейл, Морфидд Кларк, Том Беннетт, Дженн Мюррэй, Лохлэйнн О’Меарайн, Софи Радермахер, Хлоя Севиньи, Стивен Фрай, Джордан Уоллер, Росс Мак Махон

О фильме: Прекрасная молодая вдова леди Сьюзан приезжает в имение семьи покойного мужа переждать, пока в высшем обществе перестанут судачить о ее похождениях, и придумать, как поправить свое финансовое положение. Не теряя времени даром, она решает подыскать богатого мужа себе и своей юной дочери. В ход идут не только красота и обаяние, но и острый насмешливый ум и невероятный талант плести интриги.


Качество: BDRip (1080p)
Формат: MKV
Видео: MPEG-4 AVC, 15000 Кбит/с, 1920x1038, 23.976 fps
Звук: 48 kHz, AC3 Dolby Digital, 6 ch, ~384.00 kbps avg [DUB]
Звук: 48 kHz, DTS, 6 ch, 1509 Кбит/с [ENG]
Общее
Уникальный идентификатор : 218350161567153097571275965649701922511 (0xA444B621BE8A42B08524D484E05D66CF)
Полное имя : C:\Users\Pavel\Downloads\Ly60v.1.Druzhba.2016.D.BDRip.1080p.mkv
Формат : Matroska
Версия формата : Version 4 / Version 2
Размер файла : 11,0 Гбайт
Продолжительность : 1 ч. 33 м.
Общий поток : 16,9 Мбит/сек
Название фильма : Love.And.Friendship.2016.1080p.BluRay.DTS.x264-HDMaNiAcS
Дата кодирования : UTC 2016-09-14 19:56:02
Программа кодирования : mkvmerge v8.3.0 ('Over the Horizon') 64bit
Библиотека кодирования : libebml v1.3.1 + libmatroska v1.4.2

Видео
Идентификатор : 1
Формат : AVC
Формат/Информация : Advanced Video Codec
Профиль формата : High@L4.1
Параметр CABAC формата : Да
Параметр ReFrames формата : 4 кадра
Идентификатор кодека : V_MPEG4/ISO/AVC
Продолжительность : 1 ч. 33 м.
Битрейт : 15,0 Мбит/сек
Ширина : 1920 пикселей
Высота : 1038 пикселей
Соотношение сторон : 1,85:1
Режим частоты кадров : Постоянный
Частота кадров : 23,976 (24000/1001) кадра/сек
Цветовое пространство : YUV
Субдискретизация насыщенности : 4:2:0
Битовая глубина : 8 бит
Тип развёртки : Прогрессивная
Бит/(Пиксели*Кадры) : 0.314
Размер потока : 9,78 Гбайт (89%)
Библиотека кодирования : x264 core 148 r2638 7599210
Настройки программы : cabac=1 / ref=4 / deblock=1:-3:-3 / analyse=0x3:0x133 / me=tesa / subme=11 / psy=1 / psy_rd=1.04:0.00 / mixed_ref=1 / me_range=32 / chroma_me=1 / trellis=2 / 8x8dct=1 / cqm=0 / deadzone=21,11 / fast_pskip=0 / chroma_qp_offset=-2 / threads=32 / lookahead_threads=5 / sliced_threads=0 / nr=0 / decimate=0 / interlaced=0 / bluray_compat=0 / constrained_intra=0 / bframes=9 / b_pyramid=2 / b_adapt=2 / b_bias=0 / direct=3 / weightb=1 / open_gop=0 / weightp=2 / keyint=240 / keyint_min=23 / scenecut=40 / intra_refresh=0 / rc_lookahead=150 / rc=2pass / mbtree=0 / bitrate=15000 / ratetol=1.0 / qcomp=0.60 / qpmin=0 / qpmax=69 / qpstep=4 / cplxblur=20.0 / qblur=0.5 / vbv_maxrate=62500 / vbv_bufsize=78125 / nal_hrd=none / filler=0 / ip_ratio=1.40 / pb_ratio=1.30 / aq=1:0.80 / zones=130072,134231,b=0.2
Default : Да
Forced : Нет

Аудио #1
Идентификатор : 2
Формат : AC-3
Формат/Информация : Audio Coding 3
Расширение режима : CM (complete main)
Параметр Endianness формата : Big
Идентификатор кодека : A_AC3
Продолжительность : 1 ч. 33 м.
Вид битрейта : Постоянный
Битрейт : 384 Кбит/сек
Каналы : 6 каналов
Расположение каналов : Front: L C R, Side: L R, LFE
Частота : 48,0 КГц
Частота кадров : 31,250 кадров/сек (1536 spf)
Метод сжатия : С потерями
Размер потока : 256 Мбайт (2%)
Язык : Russian
Default : Да
Forced : Нет

Аудио #2
Идентификатор : 3
Формат : DTS
Формат/Информация : Digital Theater Systems
Режим : 16
Параметр Endianness формата : Big
Идентификатор кодека : A_DTS
Продолжительность : 1 ч. 33 м.
Вид битрейта : Постоянный
Битрейт : 1509 Кбит/сек
Каналы : 6 каналов
Расположение каналов : Front: L C R, Side: L R, LFE
Частота : 48,0 КГц
Частота кадров : 93,750 кадра/сек (512 spf)
Битовая глубина : 24 бит
Метод сжатия : С потерями
Размер потока : 1007 Мбайт (9%)
Заголовок : DTS 5.1
Язык : English
Default : Нет
Forced : Нет

Текст #1
Идентификатор : 4
Формат : UTF-8
Идентификатор кодека : S_TEXT/UTF8
Идентификатор кодека/Информация : UTF-8 Plain Text
Продолжительность : 1 ч. 29 м.
Битрейт : 92 бит/сек
Count of elements : 1490
Размер потока : 60,3 Кбайт (0%)
Заголовок : English
Язык : English
Default : Нет
Forced : Нет

Текст #2
Идентификатор : 5
Формат : UTF-8
Идентификатор кодека : S_TEXT/UTF8
Идентификатор кодека/Информация : UTF-8 Plain Text
Продолжительность : 1 ч. 29 м.
Битрейт : 95 бит/сек
Count of elements : 1550
Размер потока : 62,5 Кбайт (0%)
Заголовок : English-SDH
Язык : English
Default : Нет
Forced : Нет

Меню
00:00:00.000 : en:Chapter 1
00:06:18.962 : en:Chapter 2
00:14:33.581 : en:Chapter 3
00:22:33.686 : en:Chapter 4
00:29:48.620 : en:Chapter 5
00:34:52.382 : en:Chapter 6
00:41:29.237 : en:Chapter 7
00:47:13.956 : en:Chapter 8
00:51:01.225 : en:Chapter 9
00:53:26.745 : en:Chapter 10
00:59:29.399 : en:Chapter 11
01:04:45.131 : en:Chapter 12
01:07:36.761 : en:Chapter 13
01:13:18.769 : en:Chapter 14
01:19:51.036 : en:Chapter 15
01:25:54.483 : en:Chapter 16
pb.wtf



Скачать Любовь и дружба через торрент http://i78.fastpic.ru/big/2016/0718/07/06de9b23c480439b2bcca1086f3dd707.jpg Скачать фильм Любовь и дружба через торрент бесплантно в хорошем качестве О фильме: Прекрасная молодая вдова леди Сьюзан приезжает в имение семьи покойного мужа переждать, пока в высшем обществе перестанут ... 10 10 2
Info! Золотая раздача, скачанное не засчитывается.
Торрент: Зарегистрирован [2016-09-15 06:11] · скачан: 108 раз
Статус: √ проверено
Размер: 11.02 GB
Как cкачать? Как скачать Любовь и дружба через торрент | qTorrent

28-11-2019 20:33  

Отключить всю рекламу на сайте

    Дорогой пользователь! Огромная просьба, поблагодарите релизера, оцените раздачу и оставьте свои комментарий, если Вы скачали Любовь и дружба через торрент бесплатно! Внесите свою лепту в развитие PiratBit!
    Комментировать посты могут только пользователи прошедшие не сложную регистрацию
    Показать сообщения:    

    Любовь и дружба через торрент
    Скачать бесплатно Любовь и дружба
    Любовь и дружба скачать торрент
    Любовь и дружба смотреть онлайн
    Cкачать фильм Любовь и дружба бесплатно
    Любовь и дружба скачать торрент в хорошем качестве
    Любовь и дружба смотреть онлайн бесплатно в хорошем качестве


    Вы не можете начинать темы
    Вы не можете отвечать на сообщения
    Вы не можете редактировать свои сообщения
    Вы не можете удалять свои сообщения
    Вы не можете голосовать в опросах
    Вы не можете прикреплять файлы к сообщениям
    Вы можете скачивать файлы