Всегда рабочее зеркало без VPN и Proxy просто перед .vidak.icu напиши любое слово или цифру, Пример http://qj54.vidak.icu

MVO

MVO

1 сезон

1

1 сезон

iTunes

1 сезон

13

1 сезон

Deluxe

pack

Рекомендуем

Repack

30

ВАЖНО

RePack

MK11

RePack

jed

RePack

fifa19

RePack

RDR2

RePack

NEED FOR SPEED™ PAYBACK

Кинопоиск HD

6 сезон

 Острые козырьки 6 сезон

Все сериалы

все сериалы на PB.wtf

RePack

FAR CRY 5
  
Magnet ссылка

Гранд Тур / The Grand Tour / Сезон 1 / Серии 1-13 из 13 [2016., Авто-шоу, WEBRip] [MVO] (AlexFilm) pb.wtf

Гранд Тур через торрент pb.wtf

Размер: 9.25 GB | Добавлен: 5 лет 6 мес. назад | Торрент скачан:721 раз
Смотреть онлайн Гранд Тур | Скачать    Ребята, помогите собрать деньги на оплату серверов!!!

11-12-2016 10:58 Гранд Тур Скачать торрент  



Гранд Тур / The Grand Tour


Год выхода: 2016
Страна: Великобритания
Производство: Amazon
Жанр: Авто-шоу
Продолжительность: 1x~ 01:10:00
Перевод: : Профессиональный (многоголосый закадровый) [AlexFilm]

В ролях: Джереми Кларксон (Jeremy Clarkson), Ричард Хаммонд (Richard Hammond), Джеймс Мэй (James May).

Описание: "Гранд Тур" — это новое автомобильное телешоу, созданное бывшими ведущими Top Gear — Джереми Кларксоном, Ричардом Хаммондом и Джеймсом Мэйем. Зрителей ждут автомобильные обзоры, приключения по всему миру, встречи со знаменитостями и юмор, который является непременным атрибутом каждого выпуска.

Релиз:

Сэмпл: http://sendfile.su/1283907



Качество видео: WEBRip
Формат: AVI
Видео: 720x400 (1.80:1), 23.976 fps, XviD ~1400 kbps avg, 0.22 bit/pixel
Аудио Rus: 48 kHz, MP3, 2/0 (L,R) ch, ~128.00 kbps
Аудио Eng: 48 kHz, MP3, 2/0 (L,R) ch, ~192.00 kbps
Субтитры: нет

Цитата:

Перевод: Константин Кривоногов
Монтаж и сведение звука: Алексей Фокин
Роли озвучивали:Екатерина Муравицкая
Андрей Стакионис
Константин Погодаев
Дмитрий Лунёв
Михаил Суслов
Рустам Шайхиев

Формат : AVI
Формат/Информация : Audio Video Interleave
Размер файла : 884 Мбайт
Продолжительность : 1 ч. 11 м.
Общий поток : 1736 Кбит/сек
Название фильма : The Grand Tour 1x01 @ AlexFilm
Программа кодирования : VirtualDubMod 1.5.10.2 (build 2540/release)
Библиотека кодирования : VirtualDubMod build 2540/release
Видео
Идентификатор : 0
Формат : MPEG-4 Visual
Профиль формата : Advanced [email protected]
Параметр BVOP формата : Нет
Параметр QPel формата : Нет
Параметр GMC формата : Без точки перехода
Параметр матрицы формата : Default (MPEG)
Идентификатор кодека : XVID
Идентификатор кодека/Подсказка : XviD
Продолжительность : 1 ч. 11 м.
Битрейт : 1402 Кбит/сек
Ширина : 720 пикселей
Высота : 400 пикселей
Соотношение сторон : 16:9
Частота кадров : 23,976 (23976/1000) кадра/сек
Цветовое пространство : YUV
Субдискретизация насыщенности : 4:2:0
Битовая глубина : 8 бит
Тип развёртки : Прогрессивная
Метод сжатия : С потерями
Бит/(Пиксели*Кадры) : 0.203
Размер потока : 714 Мбайт (81%)
Библиотека кодирования : XviD 73
Аудио #1
Идентификатор : 1
Формат : MPEG Audio
Версия формата : Version 1
Профиль формата : Layer 3
Идентификатор кодека : 55
Идентификатор кодека/Подсказка : MP3
Продолжительность : 1 ч. 11 м.
Вид битрейта : Постоянный
Битрейт : 128 Кбит/сек
Каналы : 2 канала
Частота : 48,0 КГц
Метод сжатия : С потерями
Размер потока : 65,1 Мбайт (7%)
Выравнивание : Соединение по промежуткам
Продолжительность промежутка : 42 мс. (1,00 видеокадр)
Время предзагрузки промежутка : 504 мс.
Заголовок : Russian (AlexFilm)
Аудио #2
Идентификатор : 2
Формат : MPEG Audio
Версия формата : Version 1
Профиль формата : Layer 3
Режим : Joint stereo
Расширение режима : MS Stereo
Идентификатор кодека : 55
Идентификатор кодека/Подсказка : MP3
Продолжительность : 1 ч. 11 м.
Вид битрейта : Постоянный
Битрейт : 192 Кбит/сек
Каналы : 2 канала
Частота : 48,0 КГц
Метод сжатия : С потерями
Размер потока : 97,8 Мбайт (11%)
Выравнивание : Соединение по промежуткам
Продолжительность промежутка : 42 мс. (1,00 видеокадр)
Время предзагрузки промежутка : 504 мс.
Заголовок : English
Библиотека кодирования : LAME3.90.3
Внимание! Раздача ведётся путём добавления новых серий; при каждом добавлении создаётся новый торрент. Чтобы начать докачку новой серии, пользователям необходимо сделать следующее:
(1) остановить скачивание,
(2) удалить старый торрент у себя из клиента (старые серии удалять не надо),
(3) скачать новый торрент и запустить его у себя в клиенте вместо старого, при этом указать клиенту путь в старую папку куда и должно происходить скачивание новых серий.
Ваш клиент при этом должен произвести хеширование (проверку) старой папки (если не производит сам - помогите ему сделать это), и будет докачивать только те серии которых у вас ещё нет. Старые серии при этом не удаляются, а продолжают раздаваться!
Eсли вы уже удалили старые серии, то предотвратить повторную закачку старых серий можно, отжав галочку в соответствующих местах при запуске нового торрента. По возможности, желательно не удалять старые серии как можно дольше чтобы релизёр не столько продолжал раздавать старые серии, а смог сконцентрироваться на новых.
pb.wtf



Скачать Гранд Тур через торрент http://i84.fastpic.ru/big/2016/1128/80/631afcbe4c2260d8aec96d737bba2a80.jpg Скачать, смотреть онлайн Гранд Тур бесплантно в хорошем качестве Описание: "Гранд Тур" — это новое автомобильное телешоу, созданное бывшими ведущими Top Gear — Джереми Кларксоном, Ричардом Хаммондом и ... 9.5 10 35
Торрент: Зарегистрирован [2017-02-04 11:40] · скачан: 721 раз
Статус: √ проверено
Размер: 9.25 GB
Как cкачать? Как скачать Гранд Тур через торрент | UTorrent

% Раздел Тема Автор DL S | L
T Релизы по Парсеру [Игры, Сериалы и Фильмы и другое...] [ 263.92 GB ] Гранд Тур / The Grand Tour / Сезон 1 / Серии 1-13 из 13 [2016. Авто-шоу WEBRip 2160p] [MVO] killermax2013 Скачать
1 | 0
Автоспорт [ 80.86 GB ] Гранд Тур / The Grand Tour / Сезон 1 / Серии 1-13 из 13 [2016. Авто-шоу WEBRip 1080p] [MVO] killermax2013 Скачать
1 | 0
Автоспорт [ 47.96 GB ] Гранд Тур / The Grand Tour / Сезон 1 / Серии 1-13 из 13 [2016. Авто-шоу WEBRip 720p] [MVO] killermax2013 Скачать
1 | 0
Автоспорт [ 82.8 GB ] Гранд Тур / The Grand Tour / Сезон 1 / Серии 1-13 из 13 [2016. Авто-шоу WEBRip 1080p] [MVO] killermax2013 Скачать
1 | 0


Последний раз редактировалось: killermax2013 (2017-02-04 11:40), всего редактировалось 9 раз(а)

28-11-2019 20:33  

Отключить вcю реклaмy на сайте

    Дорогой пользователь! Огромная просьба, поблагодарите релизера, оцените раздачу и оставьте свои комментарий, если Вы скачали Гранд Тур через торрент бесплатно!
    Комментировать посты могут только пользователи прошедшие не сложную регистрацию
    Показать сообщения:    

    Гранд Тур через торрент
    Скачать бесплатно Гранд Тур
    Гранд Тур скачать торрент
    Гранд Тур смотреть онлайн
    Cкачать фильм Гранд Тур бесплатно
    Гранд Тур скачать торрент в хорошем качестве
    Гранд Тур смотреть онлайн бесплатно в хорошем качестве


    Вы не можете начинать темы
    Вы не можете отвечать на сообщения
    Вы не можете редактировать свои сообщения
    Вы не можете удалять свои сообщения
    Вы не можете голосовать в опросах
    Вы не можете прикреплять файлы к сообщениям
    Вы можете скачивать файлы