Всегда рабочее зеркало без VPN и Proxy просто перед .vidak.icu напиши любое слово или цифру, Пример http://b7vr.vidak.icu

MVO

Лицензия

1 сезон

1

1 сезон

iTunes

1 сезон

13

1 сезон

Deluxe

pack

Рекомендуем

Пиратка

30

ВАЖНО

RePack

MK11

RePack

jed

RePack

fifa19

RePack

RDR2

RePack

NEED FOR SPEED™ PAYBACK

Кинопоиск HD

6 сезон

 Острые козырьки 6 сезон

Все сериалы

все сериалы на PB.wtf

RePack

FAR CRY 5
  
Magnet ссылка

Эндорфин / Endorphine (Андре Тюрпен / André Turpin) [2015, драма, WEB-DL 1080p] MVO (AzOnFilm) + Original Fre + Sub Fre pb.wtf

Эндорфин через торрент pb.wtf

Размер: 3.15 GB | Добавлен: 5 лет 5 мес. назад | Торрент скачан:18 раз
Смотреть онлайн Эндорфин | Скачать    Ребята, помогите собрать деньги на оплату серверов!!!

11-01-2017 19:07 Эндорфин Скачать торрент  

Эндорфин / EndorphineСтрана: Канада
Студия: Micro_scope media
Жанр: Драма
Год выпуска: 2015
Продолжительность: 01:23:16
Перевод: Любительский (многоголосый закадровый) AzOnFilm
Cубтитры: французские
Оригинальная аудиодорожка: Французский

Режиссер: Андре Тюрпен / André Turpin

В ролях: Софи Нелисс, Милен МакКей, Лизе Рой, Ги Товетт, Монья Шокри, Стефан Крет, Анна-Мари Кадьо, Теодор Пеллерен, Фанни Мигнео-Лекавалье, Франсис Дюшарм

Описание: Драматический фильм-головоломка Андре Тюрпена. Три героини, связанные, казалось бы, только одинаковым именем Симона, борются с психологической травмой: 12-летняя девочка, ставшая свидетельницей жестокого убийства матери, одинокая художница, страдающая от панических атак, и 60-летняя женщина-физик. Но где здесь будущее, а где прошлое? Где реальность, а где игры подсознания?..

Дополнительная информация:
Релиз-группа - HDclub
Источник - Endorphine.2015.1080p.WEB-DL.H264.AC3-Alextincteur
Cборка дороги Skazhutin
Имеется разбивка на главы
Релиз без рекламы!

rating

Сэмпл: https://yadi.sk/i/ZypJFKTs389e7h

Качество видео: WEB-DL 1080p
Формат видео: MKV
Видео: MPEG-4, 1912x1026 (1,85:1), 23.976 fps, 4650 kbps
Аудио 1: Русский AC3, 48000 Гц, 6ch, 384 kbps
Аудио 2: Французский AC3, 48000 Гц, 6ch, 384 kbps
Формат субтитров: softsub (SRT)
Общее
Уникальный идентификатор : 246081901078685090746775645176295014386 (0xB921A673E5204B8BB7C28FA76F773FF2)
Полное имя : F:\раздача\Endorphine.2015.1080p.WEB-DL.H264.AC3-Alextincteur.mkv
Формат : Matroska
Версия формата : Version 2
Размер файла : 3,15 Гбайт
Продолжительность : 1 ч. 23 м.
Общий поток : 5421 Кбит/сек
Название фильма : Endorphine (2015)
Дата кодирования : UTC 2016-12-29 04:41:47
Программа кодирования : mkvmerge v9.7.1 ('Pandemonium') 64bit
Библиотека кодирования : libebml v1.3.4 + libmatroska v1.4.5

[/br]Видео
Идентификатор : 1
Формат : AVC
Формат/Информация : Advanced Video Codec
Профиль формата : High@L4
Параметр CABAC формата : Да
Параметр ReFrames формата : 4 кадра
Идентификатор кодека : V_MPEG4/ISO/AVC
Продолжительность : 1 ч. 23 м.
Битрейт : 4650 Кбит/сек
Ширина : 1912 пикселей
Высота : 1026 пикселей
Соотношение сторон : 1,85:1
Режим частоты кадров : Постоянный
Частота кадров : 23,976 кадра/сек
Цветовое пространство : YUV
Субдискретизация насыщенности : 4:2:0
Битовая глубина : 8 бит
Тип развёртки : Прогрессивная
Бит/(Пиксели*Кадры) : 0.099
Размер потока : 2,71 Гбайт (86%)
Язык : English
Default : Да
Forced : Нет
Цветовой диапазон : Limited
Основные цвета : BT.709
Характеристики трансфера : BT.709
Коэффициенты матрицы : BT.709

[/br]Аудио #1
Идентификатор : 2
Формат : AC-3
Формат/Информация : Audio Coding 3
Расширение режима : CM (complete main)
Параметр Endianness формата : Big
Идентификатор кодека : A_AC3
Продолжительность : 1 ч. 23 м.
Вид битрейта : Постоянный
Битрейт : 384 Кбит/сек
Каналы : 6 каналов
Расположение каналов : Front: L C R, Side: L R, LFE
Частота : 48,0 КГц
Частота кадров : 31,250 кадров/сек (1536 spf)
Метод сжатия : С потерями
Размер потока : 229 Мбайт (7%)
Заголовок : Многоголосый, АzOnFilm
Язык : Russian
Default : Да
Forced : Нет

[/br]Аудио #2
Идентификатор : 3
Формат : AC-3
Формат/Информация : Audio Coding 3
Расширение режима : CM (complete main)
Параметр Endianness формата : Big
Идентификатор кодека : A_AC3
Продолжительность : 1 ч. 23 м.
Вид битрейта : Постоянный
Битрейт : 384 Кбит/сек
Каналы : 6 каналов
Расположение каналов : Front: L C R, Side: L R, LFE
Частота : 48,0 КГц
Частота кадров : 31,250 кадров/сек (1536 spf)
Метод сжатия : С потерями
Размер потока : 229 Мбайт (7%)
Язык : French
Default : Нет
Forced : Нет

[/br]Текст
Идентификатор : 4
Формат : UTF-8
Идентификатор кодека : S_TEXT/UTF8
Идентификатор кодека/Информация : UTF-8 Plain Text
Продолжительность : 1 ч. 21 м.
Битрейт : 40 бит/сек
Count of elements : 576
Размер потока : 23,8 Кбайт (0%)
Заголовок : FULL
Язык : French
Default : Нет
Forced : Нет

[/br]Меню
00:00:00.000 : en:Chapitre 1
00:05:43.593 : en:Chapitre 2
00:12:24.327 : en:Chapitre 3
00:18:23.185 : en:Chapitre 4
00:24:03.400 : en:Chapitre 5
00:29:57.253 : en:Chapitre 6
00:36:15.923 : en:Chapitre 7
00:43:26.728 : en:Chapitre 8
00:49:58.578 : en:Chapitre 9
00:57:57.765 : en:Chapitre 10
01:04:23.066 : en:Chapitre 11
01:12:36.017 : en:Chapitre 12
01:19:34.352 : en:Chapitre 13
pb.wtf



Скачать Эндорфин через торрент http://funkyimg.com/i/2nhMa.jpg Скачать, смотреть онлайн Эндорфин бесплантно в хорошем качестве Описание: Драматический фильм-головоломка Андре Тюрпена. Три героини, связанные, казалось бы, только одинаковым именем Симона, борются с ... 5 10 1
Торрент: Зарегистрирован [2017-01-11 19:07] · скачан: 18 раз
Статус: T временная
Размер: 3.15 GB
Как cкачать? Как скачать Эндорфин через торрент | UTorrent

28-11-2019 20:33  

Отключить всю рекламу на сайте

12-01-2017 06:46 Эндорфин Скачать торрент  

Не особо...pb.wtf



    Дорогой пользователь! Огромная просьба, поблагодарите релизера, оцените раздачу и оставьте свои комментарий, если Вы скачали Эндорфин через торрент бесплатно!
    Комментировать посты могут только пользователи прошедшие не сложную регистрацию
    Показать сообщения:    

    Эндорфин через торрент
    Скачать бесплатно Эндорфин
    Эндорфин скачать торрент
    Эндорфин смотреть онлайн
    Cкачать фильм Эндорфин бесплатно
    Эндорфин скачать торрент в хорошем качестве
    Эндорфин смотреть онлайн бесплатно в хорошем качестве


    Вы не можете начинать темы
    Вы не можете отвечать на сообщения
    Вы не можете редактировать свои сообщения
    Вы не можете удалять свои сообщения
    Вы не можете голосовать в опросах
    Вы не можете прикреплять файлы к сообщениям
    Вы можете скачивать файлы