Ссылка на приватное зеркало нашего сайта всего за 1$. Внимание количество ограничено!!!

2 сезон

iTunes

1 сезон

1

2 сезон

2 сезон

iTunes

1 сезон

RePack

30

Новинка

ВАЖНО

ИГРА 18+

pack

RePack

MK11
pack

Забери бонус

RePack

jed

!!Акция!!

Alien_Rage

RePack

fifa19

RePack

Assassins Creed: Odyssey

RePack

NEED FOR SPEED™ PAYBACK

4 сезон

9 сезон

Бесстыжие 9 сезон

Все сериалы

все сериалы на PB.wtf

RePack

FAR CRY 5
  

Лиллехаммер / Lilyhammer / 3 Сезон: / Серии 1-8 (8) [2014г.,драма, комедия, криминал HDTV 1080i] MVO (Amedia) + Original + Rus sub pb.wtf

Лиллехаммер через торрент pb.wtf

Размер: 19.58 GB | Добавлен: 6 лет назад | Торрент скачан:59 раз
Скачать  

24-11-2014 07:31 Лиллехаммер Скачать торрент  

Лиллехаммер / Lilyhammer
Год выпуска: 2014
Страна: США, Норвегия
Жанр: драма, комедия, криминал
Продолжительность: 00:45:00
Перевод: Профессиональный многоголосый (Amedia)
Субтитры: Русские (Amedia) srt

Режиссер: Гер Хеннинг Хопланд, Симен Альсвик, Ёйстейн Карлсен



В ролях: Стив Ван Зандт Тронд Фауса Аурвааг Стейнар Саген Мариан Саастад Оттесен Томми Карлсен Фридтьов Сохейм Роберт Скйэрстад Энн Кригсволл Микаэль Акснес-Персон Нильс Йорген Каалстад

Описание: Крестный отец, затерянный в снегах. Ироничный сериал про босса нью-йоркской мафии, решившего выйти из игры и начать жизнь с чистого листа - в маленьком норвежском Лиллехаммере, городе зимней Олимпиады 1994-го года. На телеэкране это место казалось ему раем. В реальности все гораздо интереснее. Уживаться с обитателями мирной олимпийской деревни - это вам не гангстерами столичными командовать. В главной роли - Стив Ван Зандт из "Клана Сопрано".

Качество: HDTV 1080i
Формат:MPEG TS
Видео кодек: AVC
Аудио кодек: AC3, MP2
Видео: 1920x1080 (16:9), 25.000 fps, 7 451 Kbps (0.144 bit/pixel)
Аудио#1: AC-3, 48.0 KHz, 6 ch, 384 Kbps, CBR (Russian)
Аудио#2: MP2, 48.0 KHz, 2 ch, 192 Kbps, CBR (English)
Общее
Идентификатор : 9 (0x9)
Полное имя : H:\Лиллехаммер\Lilyhammer.S03.1080i.HDTV.H264-CasStudio\Lilyhammer.S03E01.1080i.HDTV.H264-CasStudio.ts
Формат : MPEG-TS
Размер файла : 2,59 Гбайт
Продолжительность : 43 м.
Режим общего битрейта : Переменный
Общий поток : 8484 Кбит/сек

Видео
Идентификатор : 303 (0x12F)
Идентификатор меню : 26003 (0x6593)
Формат : AVC
Формат/Информация : Advanced Video Codec
Профиль формата : High@L4.0
Параметр CABAC формата : Да
Параметр ReFrames формата : 4 кадра
Идентификатор кодека : 27
Продолжительность : 43 м.
Битрейт : 7483 Кбит/сек
Ширина : 1920 пикселей
Высота : 1080 пикселей
Соотношение сторон : 16:9
Частота кадров : 25,000 кадров/сек
Стандарт вещания : Component
Цветовое пространство : YUV
Субдискретизация насыщенности : 4:2:0
Битовая глубина : 8 бит
Тип развёртки : Чересстрочная
Порядок развёртки : Верхнее поле первое
Бит/(Пиксели*Кадры) : 0.144
Размер потока : 2,28 Гбайт (88%)
Основные цвета : BT.709
Характеристики трансфера : BT.709
Коэффициенты матрицы : BT.709
colour_range : Limited

Аудио #1
Идентификатор : 403 (0x193)
Идентификатор меню : 26003 (0x6593)
Формат : AC-3
Формат/Информация : Audio Coding 3
Расширение режима : CM (complete main)
Параметр Endianness формата : Big
Идентификатор кодека : 6
Продолжительность : 43 м.
Вид битрейта : Постоянный
Битрейт : 384 Кбит/сек
Каналы : 6 каналов
Расположение каналов : Front: L C R, Side: L R, LFE
Частота : 48,0 КГц
Битовая глубина : 16 бит
Метод сжатия : С потерями
Задержка видео : -51 мс.
Размер потока : 120 Мбайт (5%)
Язык : Russian
Язык, дополнительно : Clean effects

Аудио #2
Идентификатор : 423 (0x1A7)
Идентификатор меню : 26003 (0x6593)
Формат : MPEG Audio
Версия формата : Version 1
Профиль формата : Layer 2
Идентификатор кодека : 4
Продолжительность : 43 м.
Вид битрейта : Постоянный
Битрейт : 192 Кбит/сек
Каналы : 2 канала
Частота : 48,0 КГц
Метод сжатия : С потерями
Задержка видео : -64 мс.
Размер потока : 60,0 Мбайт (2%)
Язык : English
Язык, дополнительно : Clean effects

Текст
Идентификатор : 503 (0x1F7)-888
Идентификатор меню : 26003 (0x6593)
Формат : Teletext Subtitle
Язык : Russian

Меню
Идентификатор : 203 (0xCB)
Идентификатор меню : 26003 (0x6593)
Продолжительность : 43 м.
Список : 303 (0x12F) (AVC) / 403 (0x193) (AC-3, Russian) / 423 (0x1A7) (MPEG Audio, English) / 503 (0x1F7) ()
Язык : / Russian / English


Лиллехаммер скачать торрент


pb.wtf



Скачать Лиллехаммер через торрент http://pic.kartinco.top/images/8/cnhoc.jpg Скачать фильм Лиллехаммер через торрент бесплантно в хорошем качестве Описание: Крестный отец, затерянный в снегах. Ироничный сериал про босса нью-йоркской мафии, решившего выйти из игры и начать жизнь с ... 10 10 8
Info! Золотая раздача, скачанное не засчитывается.
Торрент: Зарегистрирован [2014-11-24 07:31] · скачан: 59 раз
Статус: √ проверено
Размер: 19.58 GB
Как cкачать? Как скачать Лиллехаммер через торрент | qTorrent

% Раздел Тема Автор DL S | L
Зарубежные сериалы [ 4.3 GB ] Лиллехаммер / Lilyhammer / Сезон: 3 / Серии: 1-8 из 8 [2014 HDTVRip] MVO + Original + Rus Subs Assasinca Скачать
1 | 0

28-11-2019 20:33  

Отключить всю рекламу на сайте

24-11-2014 11:19 Лиллехаммер Скачать торрент  

2525dima2525 писал(а):

а поменьше есть вес?

HDTVRip ссылкаpb.wtf



24-11-2014 18:37 Лиллехаммер Скачать торрент  

Вот славно!весь сезон сразу выложилиpb.wtf



25-07-2015 14:02 Лиллехаммер Скачать торрент  

встаньте на раздачу пожалуйста кто нибудьpb.wtf



    Дорогой пользователь! Огромная просьба, поблагодарите релизера, оцените раздачу и оставьте свои комментарий, если Вы скачали Лиллехаммер через торрент бесплатно! Внесите свою лепту в развитие PiratBit!
    Комментировать посты могут только пользователи прошедшие не сложную регистрацию
    Показать сообщения:    

    Лиллехаммер через торрент
    Скачать бесплатно Лиллехаммер
    Лиллехаммер скачать торрент
    Лиллехаммер смотреть онлайн
    Cкачать фильм Лиллехаммер бесплатно
    Лиллехаммер скачать торрент в хорошем качестве
    Лиллехаммер смотреть онлайн бесплатно в хорошем качестве


    Вы не можете начинать темы
    Вы не можете отвечать на сообщения
    Вы не можете редактировать свои сообщения
    Вы не можете удалять свои сообщения
    Вы не можете голосовать в опросах
    Вы не можете прикреплять файлы к сообщениям
    Вы можете скачивать файлы