Доктор Стрэндж

Лицензия

Добыча

Дубляж

Дом дракона

1 сезон

Тор

Дубляж

В эфире

Дубляж

Там, где раки поют

MVO

Властелин колец

1 сезон

GLOBAL

pack

Рекомендуем

30

Пиратка

ВАЖНО

ВАЖНО

Ghostwire

Пиратка

jed

RePack

nioh2

RePack

RDR2

RePack

NEED FOR SPEED™ PAYBACK

RePack

скачать торрент

Кинопоиск HD

Острые козырьки 6 сезон

6 сезон

FAR CRY 6

RePack

скачать торрент

Лицензия

скачать торрент

MVO

1

1 сезон

скачать торрент

1 сезон

скачать торрент

Лицензия

  

Барракуда / The Enforcer (Ричард Хьюз) [2022, Боевик, триллер, драма, криминал, WEB-DL 1080p] DVO [Pazl Voice]

Барракуда через торрент pb.wtf

Раздают: 5 [ 1 KB/s ]
Размер: 4.72 GB | Добавлен: 2 мес. 1 д. назад | Торрент скачан:219 раз
Смотреть онлайн | Скачать   

28-09-2022 19:26 Барракуда Скачать торрент  

Барракуда
The Enforcer

Год выпуска: 2022
Страна: США
Выпущено: Born to Burn Films, Millenium Media Group, Millennium Media, Nu Boyana Film Studios
Жанр: Боевик, триллер, драма, криминал
Продолжительность: 01:30:37
Перевод: Любительский (двухголосый) | Pazl Voice
Субтитры: Aнглийские

Режиссер: Ричард Хьюз

rating

В ролях: Антонио Бандерас, Кейт Босворт, Моджиан Ариа, Золи Григгс, Алексис Рен, 2 Chainz, Наталия Берн, Марк Смит, Люк Бушье, Кристос Василопулос, Кика Джорджиу, Костас Соммер, Манос Гаврас, Аарон Коэн, Тихомир Винчев

Описание: В преступном мире все содрогаются от имени «Барракуда». Он — настоящий профессионал своего дела. Но когда жертвой мафии становится невинная 15-летняя девочка, он идет против всех правил и направляет всю ярость на своих же работодателей.

Качество: WEB-DL 1080p
Формат: MKV

Видео: MPEG-4 AVC, 6692 Кбит/с, 1920x806
Аудио #1: AC3, 6 ch, 384 Кбит/с | RUS |
Аудио #2: AC3, 6 ch, 384 Кбит/с | ENG |
скриншот  скриншот  скриншот  скриншот  

General
Unique ID: 8048587012365449873979803133452697551 (0x60E19FA2E62CBB6A7FD8C9DAEE73FCF)
Complete name: E:TorrentsThe.Enforcer.2022.1080p_от New-Team.mkv
Format: Matroska
Format version: Version 4
File size: 4.72 GiB
Duration: 1 h 30 min
Overall bit rate: 7 463 kb/s
Movie name: The.Enforcer.2022.1080p_от New-Team
Encoded date: UTC 2022-09-27 18:32:43
Writing application: mkvmerge v59.0.0 ('Shining Star') 64-bit
Writing library: libebml v1.4.2 + libmatroska v1.6.4

Video
ID: 1
Format: AVC
Format/Info: Advanced Video Codec
Format profile: [email protected]
Format settings: CABAC / 5 Ref Frames
Format settings, CABAC: Yes
Format settings, Reference: 5 frames
Codec ID: V_MPEG4/ISO/AVC
Duration: 1 h 30 min
Bit rate: 6 692 kb/s
Width: 1 920 pixels
Height: 806 pixels
Display aspect ratio: 2.40:1
Frame rate mode: Constant
Frame rate: 23.976 (24000/1001) FPS
Color space: YUV
Chroma subsampling: 4:2:0
Bit depth: 8 bits
Scan type: Progressive
Bits/(Pixel*Frame): 0.180
Stream size: 4.24 GiB (90%)
Language: English
Default: Yes
Forced: No
Color range: Limited
Color primaries: BT.709
Transfer characteristics: BT.709
Matrix coefficients: BT.709

Audio #1
ID: 2
Format: AC-3
Format/Info: Audio Coding 3
Commercial name: Dolby Digital
Codec ID: A_AC3
Duration: 1 h 30 min
Bit rate mode: Constant
Bit rate: 384 kb/s
Channel(s): 6 channels
Channel layout: L R C LFE Ls Rs
Sampling rate: 48.0 kHz
Frame rate: 31.250 FPS (1536 SPF)
Compression mode: Lossy
Stream size: 249 MiB (5%)
Title: DVO - Pazl Voice
Language: Russian
Service kind: Complete Main
Default: Yes
Forced: No

Audio #2
ID: 3
Format: AC-3
Format/Info: Audio Coding 3
Commercial name: Dolby Digital
Codec ID: A_AC3
Duration: 1 h 30 min
Bit rate mode: Constant
Bit rate: 384 kb/s
Channel(s): 6 channels
Channel layout: L R C LFE Ls Rs
Sampling rate: 48.0 kHz
Frame rate: 31.250 FPS (1536 SPF)
Compression mode: Lossy
Stream size: 249 MiB (5%)
Language: English
Service kind: Complete Main
Default: No
Forced: No

Text #1
ID: 4
Format: UTF-8
Codec ID: S_TEXT/UTF8
Codec ID/Info: UTF-8 Plain Text
Duration: 1 h 24 min
Bit rate: 58 b/s
Count of elements: 1391
Stream size: 36.1 KiB (0%)
Title: SDH
Language: English
Default: No
Forced: No

Text #2
ID: 5
Format: UTF-8
Codec ID: S_TEXT/UTF8
Codec ID/Info: UTF-8 Plain Text
Duration: 1 h 24 min
Bit rate: 50 b/s
Count of elements: 1114
Stream size: 31.0 KiB (0%)
Language: English
Default: No
Forced: No

Menu
00:00:00.000: Chapter 01
00:05:28.578: Chapter 02
00:11:22.015: Chapter 03
00:15:29.429: Chapter 04
00:20:22.263: Chapter 05
00:25:28.862: Chapter 06
00:29:52.375: Chapter 07
00:36:20.263: Chapter 08
00:41:10.387: Chapter 09
00:46:31.583: Chapter 10
00:51:04.272: Chapter 11
00:59:33.365: Chapter 12
01:05:02.819: Chapter 13
01:10:12.128: Chapter 14
01:16:57.242: Chapter 15




Скачать Барракуда через торрент https://i120.fastpic.org/big/2022/0927/a8/b94c46719fe1f1129b8956af6c384aa8.jpg Скачать, смотреть онлайн Барракуда бесплантно в хорошем качестве Описание: В преступном мире все содрогаются от имени «Барракуда». Он — настоящий профессионал своего дела. Но когда жертвой мафии ... 9.8 10 8
Торрент: Зарегистрирован [2022-09-28 19:26] · скачан: 219 раз
Статус: T временная
Размер: 4.72 GB
Как cкачать? Как скачать Барракуда через торрент | UTorrent

28-11-2019 20:33  


Отключить вcю реклaмy на сайте, в т.ч. и в плеере онлайн просмотра!

29-09-2022 09:29 Барракуда Скачать торрент  

Джон Уик на минималках)))



29-09-2022 17:56 Барракуда Скачать торрент  

чуть не уснул



    Дорогой пользователь! Огромная просьба, поблагодарите релизера, оцените раздачу и оставьте свои комментарий, если Вы скачали Барракуда через торрент бесплатно!!
    Комментировать посты могут только пользователи прошедшие не сложную регистрацию
    Показать сообщения:    


    Барракуда через торрент
    Скачать бесплатно Барракуда
    Барракуда скачать торрент
    Барракуда смотреть онлайн
    Cкачать фильм Барракуда бесплатно
    Барракуда скачать торрент в хорошем качестве
    Барракуда смотреть онлайн бесплатно в хорошем качестве
    Вы не можете начинать темы
    Вы не можете отвечать на сообщения
    Вы не можете редактировать свои сообщения
    Вы не можете удалять свои сообщения
    Вы не можете голосовать в опросах
    Вы не можете прикреплять файлы к сообщениям
    Вы можете скачивать файлы
    Барракуда / The Enforcer [2022, Боевик, триллер, драма, криминал, WEB-DL 1080p] DVO [Pazl Voice] смотреть онлайн, скачать торрент picoco.icu