Ссылка на приватное зеркало нашего сайта всего за 1$. Внимание количество ограничено!!!

2 сезон

iTunes

1 сезон

1

2 сезон

2 сезон

iTunes

1 сезон

RePack

30

Ultimate

ВАЖНО

ИГРА 18+

pack

RePack

MK11
pack

Забери бонус

RePack

jed

!!Акция!!

Alien_Rage

RePack

fifa19

RePack

Assassins Creed: Odyssey

RePack

NEED FOR SPEED™ PAYBACK

4 сезон

9 сезон

Бесстыжие 9 сезон

Все сериалы

все сериалы на PB.wtf

RePack

FAR CRY 5
  

Синтел / Sintel (Колин Леви) [2010 г., мультфильм, короткометражка, фэнтези,DMRip 4k,любительский дубляж, двухголосный, одноголосный, украинский многоголосный pb.wtf

Синтел через торрент pb.wtf

Размер: 5.11 GB | Добавлен: 5 лет 1 мес. назад | Торрент скачан:27 раз
Скачать  

17-10-2015 17:37 Синтел Скачать торрент  

Синтел / Sintel
Год выпуска: 2010
Страна: Нидерланды
Жанр: мультфильм, короткометражка, фэнтези
Продолжительность: 14 мин.
Перевод: любительский дубляж, двухголосный, одноголосный, украинский многоголосный
Субтитры: русские, украинские, английские

Режиссер: Колин Леви
Продюссер: Тон Росендал
Сценарий: Эстер Воуда, Мартин Лодевейк

Премьера в мире: 27 сентября 2010



В ролях: Халина Рейн, Том Хоффман

Описание: Эта трогательная история произошла в красочном и фантастическом мире. В мире, где одинокой девушке по имени Синтель предстоит отправиться на поиски своего необычного маленького питомца, которого она приютила... Эта история о крепкой дружбе и неожиданных поворотах судьбы, которая порой бывает очень сурова...

Качество: DMRip 4k
Формат: MKV
Видео кодек: AVC
Аудио кодек:AC-3,DTS
Видео: AVC, 4096x1744p (2.35:1), 24 fps, x264 ~45 Mbps
Аудио#1 (RUS): AC-3 DD 2.0, 48 kHz, 128 kbps | любительский дубляж (StopGame)
Аудио#2 (RUS): DTS 5.1, 48 kHz, 1536 kbps | двухголосный (UndergroundVoice)
Аудио#3 (RUS): DD 2.0, 48 kHz, 192 kbps | одноголосный (Ancord)
Аудио#4 (UKR): DD 2.0, 48 kHz, 160 kbps | многоголосный (Три крапки)
Аудио#5 (ENG): DTS 5.1, 48 kHz, 1536 kbps
Аудио#6—13 (ENG): DD 2.0, 48 kHz, 96/192 kbps | комментарии
Уникальный идентификатор : 232506827319591761794266426924524049346 (0xAEEB2FA44F74F17690DC54C4CFA313C2)
Полное имя : D:\download\Sintel.mkv
Формат : Matroska
Версия формата : Version 2
Размер файла : 5,11 Гбайт
Продолжительность : 14 м.
Общий поток : 49,5 Мбит/сек
Название фильма : Sintel (2010) DMRip by MaLLIeHbKa
Дата кодирования : UTC 2011-03-29 22:04:10
Программа кодирования : mkvmerge v4.6.0 ('Still Crazy After All These Years') built on Mar 10 2011 02:50:32
Библиотека кодирования : libebml v1.2.0 + libmatroska v1.1.0
Attachment : Yes

Видео
Идентификатор : 1
Формат : AVC
Формат/Информация : Advanced Video Codec
Профиль формата : High@L5.1
Параметр CABAC формата : Да
Параметр ReFrames формата : 4 кадра
Идентификатор кодека : V_MPEG4/ISO/AVC
Продолжительность : 14 м.
Битрейт : 45,0 Мбит/сек
Ширина : 4096 пикселей
Высота : 1744 пикселя
Соотношение сторон : 2,35:1
Режим частоты кадров : Постоянный
Частота кадров : 24,000 кадра/сек
Цветовое пространство : YUV
Субдискретизация насыщенности : 4:2:0
Битовая глубина : 8 бит
Тип развёртки : Прогрессивная
Бит/(Пиксели*Кадры) : 0.262
Размер потока : 4,55 Гбайт (89%)
Заголовок : 4096x1744p (2.35:1), 24 fps, x264 ~45 Mbps (EbP)
Библиотека кодирования : x264 core 114 r1913 5fd3dce
Настройки программы : cabac=1 / ref=4 / deblock=1:-3:-3 / analyse=0x3:0x113 / me=tesa / subme=10 / psy=1 / psy_rd=0.70:0.10 / mixed_ref=1 / me_range=16 / chroma_me=1 / trellis=2 / 8x8dct=1 / cqm=0 / deadzone=21,11 / fast_pskip=0 / chroma_qp_offset=-3 / threads=12 / sliced_threads=0 / nr=0 / decimate=0 / interlaced=0 / constrained_intra=0 / bframes=6 / b_pyramid=2 / b_adapt=2 / b_bias=0 / direct=3 / weightb=1 / open_gop=0 / weightp=2 / keyint=250 / keyint_min=24 / scenecut=40 / intra_refresh=0 / rc=2pass / mbtree=0 / bitrate=45000 / ratetol=1.0 / qcomp=0.60 / qpmin=0 / qpmax=69 / qpstep=4 / cplxblur=20.0 / qblur=0.5 / ip_ratio=1.40 / pb_ratio=1.30 / aq=1:1.00 / zones=6900,7199,b=2.0/8400,8415,b=2.0
Язык : English
Default : Да
Forced : Нет

Аудио #1
Идентификатор : 2
Формат : AC-3
Формат/Информация : Audio Coding 3
Расширение режима : CM (complete main)
Параметр Endianness формата : Big
Идентификатор кодека : A_AC3
Продолжительность : 14 м.
Вид битрейта : Постоянный
Битрейт : 128 Кбит/сек
Каналы : 2 канала
Расположение каналов : Front: L R
Частота : 48,0 КГц
Битовая глубина : 16 бит
Метод сжатия : С потерями
Размер потока : 13,5 Мбайт (0%)
Заголовок : RUS FanDub (StopGame) DD 2.0, 48 kHz, 128 kbps
Язык : Russian
Default : Да
Forced : Нет

Аудио #2
Идентификатор : 3
Формат : DTS
Формат/Информация : Digital Theater Systems
Режим : 16
Параметр Endianness формата : Big
Идентификатор кодека : A_DTS
Продолжительность : 14 м.
Вид битрейта : Постоянный
Битрейт : 1509 Кбит/сек
Каналы : 6 каналов
Расположение каналов : Front: L C R, Side: L R, LFE
Частота : 48,0 КГц
Битовая глубина : 24 бит
Метод сжатия : С потерями
Размер потока : 160 Мбайт (3%)
Заголовок : RUS DVO (UndergroundVoice) DTS 5.1, 48 kHz, 1536 kbps
Язык : Russian
Default : Нет
Forced : Нет

Аудио #3
Идентификатор : 4
Формат : AC-3
Формат/Информация : Audio Coding 3
Расширение режима : CM (complete main)
Параметр Endianness формата : Big
Идентификатор кодека : A_AC3
Продолжительность : 14 м.
Вид битрейта : Постоянный
Битрейт : 192 Кбит/сек
Каналы : 2 канала
Расположение каналов : Front: L R
Частота : 48,0 КГц
Битовая глубина : 16 бит
Метод сжатия : С потерями
Размер потока : 20,3 Мбайт (0%)
Заголовок : RUS AVO (Ancord) DD 2.0, 48 kHz, 192 kbps
Язык : Russian
Default : Нет
Forced : Нет

Аудио #4
Идентификатор : 5
Формат : AC-3
Формат/Информация : Audio Coding 3
Расширение режима : CM (complete main)
Параметр Endianness формата : Big
Идентификатор кодека : A_AC3
Продолжительность : 14 м.
Вид битрейта : Постоянный
Битрейт : 160 Кбит/сек
Каналы : 2 канала
Расположение каналов : Front: L R
Частота : 48,0 КГц
Битовая глубина : 16 бит
Метод сжатия : С потерями
Размер потока : 16,9 Мбайт (0%)
Заголовок : UKR MVO (Tri Krapki) DD 2.0, 48 kHz, 160 kbps
Язык : Ukrainian
Default : Нет
Forced : Нет

Аудио #5
Идентификатор : 6
Формат : DTS
Формат/Информация : Digital Theater Systems
Режим : 16
Параметр Endianness формата : Big
Идентификатор кодека : A_DTS
Продолжительность : 14 м.
Вид битрейта : Постоянный
Битрейт : 1509 Кбит/сек
Каналы : 6 каналов
Расположение каналов : Front: L C R, Side: L R, LFE
Частота : 48,0 КГц
Битовая глубина : 24 бит
Метод сжатия : С потерями
Размер потока : 160 Мбайт (3%)
Заголовок : ENG DTS 5.1, 48 kHz, 1536 kbps
Язык : English
Default : Нет
Forced : Нет

Аудио #6
Идентификатор : 7
Формат : AC-3
Формат/Информация : Audio Coding 3
Расширение режима : CM (complete main)
Параметр Endianness формата : Big
Идентификатор кодека : A_AC3
Продолжительность : 14 м.
Вид битрейта : Постоянный
Битрейт : 96,0 Кбит/сек
Каналы : 2 канала
Расположение каналов : Front: L R
Частота : 48,0 КГц
Битовая глубина : 16 бит
Метод сжатия : С потерями
Размер потока : 10,2 Мбайт (0%)
Заголовок : ENC commentary #1 (director) DD 2.0, 48 kHz, 96 kbps
Язык : English
Default : Нет
Forced : Нет

Аудио #7
Идентификатор : 8
Формат : AC-3
Формат/Информация : Audio Coding 3
Расширение режима : CM (complete main)
Параметр Endianness формата : Big
Идентификатор кодека : A_AC3
Продолжительность : 14 м.
Вид битрейта : Постоянный
Битрейт : 96,0 Кбит/сек
Каналы : 2 канала
Расположение каналов : Front: L R
Частота : 48,0 КГц
Битовая глубина : 16 бит
Метод сжатия : С потерями
Размер потока : 10,2 Мбайт (0%)
Заголовок : ENC commentary #2 (writer) DD 2.0, 48 kHz, 96 kbps
Язык : English
Default : Нет
Forced : Нет

Аудио #8
Идентификатор : 9
Формат : AC-3
Формат/Информация : Audio Coding 3
Расширение режима : CM (complete main)
Параметр Endianness формата : Big
Идентификатор кодека : A_AC3
Продолжительность : 14 м.
Вид битрейта : Постоянный
Битрейт : 96,0 Кбит/сек
Каналы : 2 канала
Расположение каналов : Front: L R
Частота : 48,0 КГц
Битовая глубина : 16 бит
Метод сжатия : С потерями
Размер потока : 10,2 Мбайт (0%)
Заголовок : ENC commentary #3 (entire team) DD 2.0, 48 kHz, 96 kbps
Язык : English
Default : Нет
Forced : Нет

Аудио #9
Идентификатор : 10
Формат : AC-3
Формат/Информация : Audio Coding 3
Расширение режима : CM (complete main)
Параметр Endianness формата : Big
Идентификатор кодека : A_AC3
Продолжительность : 14 м.
Вид битрейта : Постоянный
Битрейт : 192 Кбит/сек
Каналы : 2 канала
Расположение каналов : Front: L R
Частота : 48,0 КГц
Битовая глубина : 16 бит
Метод сжатия : С потерями
Размер потока : 20,3 Мбайт (0%)
Заголовок : ENC commentary #4 (render team) DD 2.0, 48 kHz, 192 kbps
Язык : English
Default : Нет
Forced : Нет

Аудио #10
Идентификатор : 11
Формат : AC-3
Формат/Информация : Audio Coding 3
Расширение режима : CM (complete main)
Параметр Endianness формата : Big
Идентификатор кодека : A_AC3
Продолжительность : 14 м.
Вид битрейта : Постоянный
Битрейт : 96,0 Кбит/сек
Каналы : 2 канала
Расположение каналов : Front: L R
Частота : 48,0 КГц
Битовая глубина : 16 бит
Метод сжатия : С потерями
Размер потока : 10,2 Мбайт (0%)
Заголовок : ENC commentary #5 (rigger) DD 2.0, 48 kHz, 96 kbps
Язык : English
Default : Нет
Forced : Нет

Аудио #11
Идентификатор : 12
Формат : AC-3
Формат/Информация : Audio Coding 3
Расширение режима : CM (complete main)
Параметр Endianness формата : Big
Идентификатор кодека : A_AC3
Продолжительность : 14 м.
Вид битрейта : Постоянный
Битрейт : 96,0 Кбит/сек
Каналы : 2 канала
Расположение каналов : Front: L R
Частота : 48,0 КГц
Битовая глубина : 16 бит
Метод сжатия : С потерями
Размер потока : 10,2 Мбайт (0%)
Заголовок : ENC commentary #6 (animators) DD 2.0, 48 kHz, 96 kbps
Язык : English
Default : Нет
Forced : Нет

Аудио #12
Идентификатор : 13
Формат : AC-3
Формат/Информация : Audio Coding 3
Расширение режима : C (commentary)
Параметр Endianness формата : Big
Идентификатор кодека : A_AC3
Продолжительность : 14 м.
Вид битрейта : Постоянный
Битрейт : 192 Кбит/сек
Каналы : 2 канала
Расположение каналов : Front: L R
Частота : 48,0 КГц
Битовая глубина : 16 бит
Метод сжатия : С потерями
Размер потока : 20,3 Мбайт (0%)
Заголовок : ENC commentary #7 (composer) DD 2.0, 48 kHz, 192 kbps
Язык : English
Default : Нет
Forced : Нет

Аудио #13
Идентификатор : 14
Формат : AC-3
Формат/Информация : Audio Coding 3
Расширение режима : CM (complete main)
Параметр Endianness формата : Big
Идентификатор кодека : A_AC3
Продолжительность : 14 м.
Вид битрейта : Постоянный
Битрейт : 96,0 Кбит/сек
Каналы : 2 канала
Расположение каналов : Front: L R
Частота : 48,0 КГц
Битовая глубина : 16 бит
Метод сжатия : С потерями
Размер потока : 10,2 Мбайт (0%)
Заголовок : ENC commentary #8 (coders) DD 2.0, 48 kHz, 96 kbps
Язык : English
Default : Нет
Forced : Нет

Текст #1
Идентификатор : 15
Формат : UTF-8
Идентификатор кодека : S_TEXT/UTF8
Идентификатор кодека/Информация : UTF-8 Plain Text
Заголовок : RUS SRT/UTF8
Язык : Russian
Default : Нет
Forced : Нет

Текст #2
Идентификатор : 16
Формат : UTF-8
Идентификатор кодека : S_TEXT/UTF8
Идентификатор кодека/Информация : UTF-8 Plain Text
Заголовок : RUS Demiurg.e SRT/UTF8
Язык : Russian
Default : Нет
Forced : Нет

Текст #3
Идентификатор : 17
Формат : UTF-8
Идентификатор кодека : S_TEXT/UTF8
Идентификатор кодека/Информация : UTF-8 Plain Text
Заголовок : UKR SRT/UTF8
Язык : Ukrainian
Default : Нет
Forced : Нет

Текст #4
Идентификатор : 18
Формат : UTF-8
Идентификатор кодека : S_TEXT/UTF8
Идентификатор кодека/Информация : UTF-8 Plain Text
Заголовок : ENG SRT/UTF8
Язык : English
Default : Нет
Forced : Нет
скриншот   скриншот   скриншот  
pb.wtf



Скачать Синтел через торрент http://pic.kartinco.top/images/11/e65gj.jpg Скачать фильм Синтел через торрент бесплантно в хорошем качестве Описание: Эта трогательная история произошла в красочном и фантастическом мире. В мире, где одинокой девушке по имени Синтель предстоит ... 10 10 5
Info! Золотая раздача, скачанное не засчитывается.
Торрент: Зарегистрирован [2015-10-17 17:37] · скачан: 27 раз
Статус: √ проверено
Размер: 5.11 GB
Как cкачать? Как скачать Синтел через торрент | qTorrent



Последний раз редактировалось: schultz (2015-10-17 18:58), всего редактировалось 14 раз(а)

28-11-2019 20:33  

Отключить всю рекламу на сайте

17-10-2015 17:50 Синтел Скачать торрент  

Добавьте пожалуйста отчет MediaInfo
Как получить информацию по видеофайлу (отчёт MediaInfo) (Жмите)
Дополнительные требования для всех релизов кинопроката , Видео и ТВ (отчёт MediaInfo) (Жмите)

Messa-fan писал(а):

  • Минимально требуемый процессор для нормального воспроизведения - i5 3470.
  • Перед просмотром рекомендуется обновить кодеки до последней версии.
  • В качестве плеера рекомендую MPC HC или VLC.

  • Просьба отписаться у кого пошло/не пошло с конфигурацией ПК.

это нужно добавить в тему, чтоб люди понимали что качают.pb.wtf



17-10-2015 18:06 Синтел Скачать торрент  

Цитата:

Перевод: Любительский (многоголосый)

Код:

Перевод: любительский дубляж, двухголосный, одноголосный, украинский многоголосный

Цитата:

Качество: 4K

Код:

Качество: DMRip 4k

Encode by MaLLIeHbKa
Аудио №1 (RUS): DD 2.0, 48 kHz, 128 kbps | любительский дубляж (StopGame)
Аудио №2 (RUS): DTS 5.1, 48 kHz, 1536 kbps | двухголосный (UndergroundVoice)
Аудио №3 (RUS): DD 2.0, 48 kHz, 192 kbps | одноголосный (Ancord)
Аудио №4 (UKR): DD 2.0, 48 kHz, 160 kbps | многоголосный (Три крапки)
Аудио №5 (ENG): DTS 5.1, 48 kHz, 1536 kbps
Аудио №6—13 (ENG): DD 2.0, 48 kHz, 96/192 kbps | комментарии

Рип сделан с 8-битного исходника, полученного дизерингом→ 16-битного рендера разрешением 4K→. Сам рендер доступен в архиве xiph.org→, там же лежит оригинальный звук (FLAC 5.1), минусовка (на основе которой изготовлен дубляж) и «официальные» сабы (русские — от drakmail & poet с форума blenderartists.org).

Речи в мульте минимум, так что смотреть рекомендую с оригинальной дорогой. Что же касается локализованных: за любительский дубляж спасибо товарищам со StopGame'а (дорога отсюда), за отличную одноголоску — Ancord'у (дорога отсюда), за украинскую многоголоску от студии «Три крапки» и украинские сабы — украинскому же порталу Hurtom, за альтернативные русские сабы — Demiurg.e (взяты остюда). Что касается двухголоски от творческого коллектива UndergroundVoice (раздача), то голоса с неё были выделены и переналожены на центр оригинальной дороги. Выделялись они хреново, так что укладка (практически синхронная с оригинальной речью) не менялась, но в любом случае в настоящее время это единственная полноценная русская 5.1 дорога, да и к тому же, как уже было сказано, речи в мульте крайне мало.pb.wtf



17-10-2015 19:15 Синтел Скачать торрент  

мульт прикольный рекомендую к просмотруpb.wtf



    Дорогой пользователь! Огромная просьба, поблагодарите релизера, оцените раздачу и оставьте свои комментарий, если Вы скачали Синтел через торрент бесплатно! Внесите свою лепту в развитие PiratBit!
    Комментировать посты могут только пользователи прошедшие не сложную регистрацию
    Показать сообщения:    

    Синтел через торрент
    Скачать бесплатно Синтел
    Синтел скачать торрент
    Синтел смотреть онлайн
    Cкачать фильм Синтел бесплатно
    Синтел скачать торрент в хорошем качестве
    Синтел смотреть онлайн бесплатно в хорошем качестве


    Вы не можете начинать темы
    Вы не можете отвечать на сообщения
    Вы не можете редактировать свои сообщения
    Вы не можете удалять свои сообщения
    Вы не можете голосовать в опросах
    Вы не можете прикреплять файлы к сообщениям
    Вы можете скачивать файлы